  0
SECTION
  2
HEADER
  9
$ACADVER
  1
AC1027
  9
$ACADMAINTVER
 70
    55
  9
$DWGCODEPAGE
  3
ANSI_949
  9
$LASTSAVEDBY
  1
DESKTOP
  9
$REQUIREDVERSIONS
160
                 0
  9
$INSBASE
 10
0.0
 20
0.0
 30
0.0
  9
$EXTMIN
 10
-2.340843432375436
 20
-2.33553876537519
 30
-0.0000000000000053
  9
$EXTMAX
 10
234.355107027274
 20
164.5557396051533
 30
0.0000000000000099
  9
$LIMMIN
 10
0.0
 20
0.0
  9
$LIMMAX
 10
420.0
 20
297.0
  9
$ORTHOMODE
 70
     0
  9
$REGENMODE
 70
     1
  9
$FILLMODE
 70
     1
  9
$QTEXTMODE
 70
     0
  9
$MIRRTEXT
 70
     0
  9
$LTSCALE
 40
5.0
  9
$ATTMODE
 70
     1
  9
$TEXTSIZE
 40
3.0
  9
$TRACEWID
 40
1.0
  9
$TEXTSTYLE
  7
Standard
  9
$CLAYER
  8
0
  9
$CELTYPE
  6
ByLayer
  9
$CECOLOR
 62
     7
  9
$CELTSCALE
 40
1.0
  9
$DISPSILH
 70
     0
  9
$DIMSCALE
 40
1.0
  9
$DIMASZ
 40
2.5
  9
$DIMEXO
 40
0.625
  9
$DIMDLI
 40
3.75
  9
$DIMRND
 40
0.0
  9
$DIMDLE
 40
0.0
  9
$DIMEXE
 40
1.25
  9
$DIMTP
 40
0.0
  9
$DIMTM
 40
0.000000001
  9
$DIMTXT
 40
3.0
  9
$DIMCEN
 40
-0.5
  9
$DIMTSZ
 40
0.0
  9
$DIMTOL
 70
     0
  9
$DIMLIM
 70
     0
  9
$DIMTIH
 70
     0
  9
$DIMTOH
 70
     0
  9
$DIMSE1
 70
     0
  9
$DIMSE2
 70
     0
  9
$DIMTAD
 70
     1
  9
$DIMZIN
 70
     8
  9
$DIMBLK
  1

  9
$DIMASO
 70
     1
  9
$DIMSHO
 70
     1
  9
$DIMPOST
  1

  9
$DIMAPOST
  1

  9
$DIMALT
 70
     0
  9
$DIMALTD
 70
     3
  9
$DIMALTF
 40
0.03937007874016
  9
$DIMLFAC
 40
1.0
  9
$DIMTOFL
 70
     1
  9
$DIMTVP
 40
0.0
  9
$DIMTIX
 70
     0
  9
$DIMSOXD
 70
     0
  9
$DIMSAH
 70
     0
  9
$DIMBLK1
  1

  9
$DIMBLK2
  1

  9
$DIMSTYLE
  2
Standard
  9
$DIMCLRD
 70
     3
  9
$DIMCLRE
 70
     3
  9
$DIMCLRT
 70
     2
  9
$DIMTFAC
 40
0.7
  9
$DIMGAP
 40
0.625
  9
$DIMJUST
 70
     0
  9
$DIMSD1
 70
     0
  9
$DIMSD2
 70
     0
  9
$DIMTOLJ
 70
     0
  9
$DIMTZIN
 70
     8
  9
$DIMALTZ
 70
     0
  9
$DIMALTTZ
 70
     0
  9
$DIMUPT
 70
     0
  9
$DIMDEC
 70
     8
  9
$DIMTDEC
 70
     8
  9
$DIMALTU
 70
     2
  9
$DIMALTTD
 70
     3
  9
$DIMTXSTY
  7
Standard
  9
$DIMAUNIT
 70
     1
  9
$DIMADEC
 70
     1
  9
$DIMALTRND
 40
0.0
  9
$DIMAZIN
 70
     0
  9
$DIMDSEP
 70
    46
  9
$DIMATFIT
 70
     3
  9
$DIMFRAC
 70
     0
  9
$DIMLDRBLK
  1

  9
$DIMLUNIT
 70
     2
  9
$DIMLWD
 70
    -1
  9
$DIMLWE
 70
    -1
  9
$DIMTMOVE
 70
     0
  9
$DIMFXL
 40
1.0
  9
$DIMFXLON
 70
     0
  9
$DIMJOGANG
 40
0.7853981633974483
  9
$DIMTFILL
 70
     0
  9
$DIMTFILLCLR
 70
     0
  9
$DIMARCSYM
 70
     1
  9
$DIMLTYPE
  6

  9
$DIMLTEX1
  6

  9
$DIMLTEX2
  6

  9
$DIMTXTDIRECTION
 70
     0
  9
$LUNITS
 70
     2
  9
$LUPREC
 70
     4
  9
$SKETCHINC
 40
0.0
  9
$FILLETRAD
 40
0.0
  9
$AUNITS
 70
     0
  9
$AUPREC
 70
     0
  9
$MENU
  1
.
  9
$ELEVATION
 40
0.0
  9
$PELEVATION
 40
0.0
  9
$THICKNESS
 40
0.0
  9
$LIMCHECK
 70
     0
  9
$CHAMFERA
 40
0.5
  9
$CHAMFERB
 40
0.5
  9
$CHAMFERC
 40
0.0
  9
$CHAMFERD
 40
0.0087266462599716
  9
$SKPOLY
 70
     0
  9
$TDCREATE
 40
2455072.745932974
  9
$TDUCREATE
 40
2455072.370932974
  9
$TDUPDATE
 40
2461019.639403252
  9
$TDUUPDATE
 40
2461019.264403252
  9
$TDINDWG
 40
132.1595725694
  9
$TDUSRTIMER
 40
132.1595723843
  9
$USRTIMER
 70
     1
  9
$ANGBASE
 50
0.0
  9
$ANGDIR
 70
     0
  9
$PDMODE
 70
     0
  9
$PDSIZE
 40
0.0
  9
$PLINEWID
 40
0.0
  9
$SPLFRAME
 70
     0
  9
$SPLINETYPE
 70
     6
  9
$SPLINESEGS
 70
     8
  9
$HANDSEED
  5
4CEA7
  9
$SURFTAB1
 70
     6
  9
$SURFTAB2
 70
     6
  9
$SURFTYPE
 70
     6
  9
$SURFU
 70
     6
  9
$SURFV
 70
     6
  9
$UCSBASE
  2

  9
$UCSNAME
  2

  9
$UCSORG
 10
0.0
 20
0.0
 30
0.0
  9
$UCSXDIR
 10
1.0
 20
0.0
 30
0.0
  9
$UCSYDIR
 10
0.0
 20
1.0
 30
0.0
  9
$UCSORTHOREF
  2

  9
$UCSORTHOVIEW
 70
     0
  9
$UCSORGTOP
 10
0.0
 20
0.0
 30
0.0
  9
$UCSORGBOTTOM
 10
0.0
 20
0.0
 30
0.0
  9
$UCSORGLEFT
 10
0.0
 20
0.0
 30
0.0
  9
$UCSORGRIGHT
 10
0.0
 20
0.0
 30
0.0
  9
$UCSORGFRONT
 10
0.0
 20
0.0
 30
0.0
  9
$UCSORGBACK
 10
0.0
 20
0.0
 30
0.0
  9
$PUCSBASE
  2

  9
$PUCSNAME
  2

  9
$PUCSORG
 10
0.0
 20
0.0
 30
0.0
  9
$PUCSXDIR
 10
1.0
 20
0.0
 30
0.0
  9
$PUCSYDIR
 10
0.0
 20
1.0
 30
0.0
  9
$PUCSORTHOREF
  2

  9
$PUCSORTHOVIEW
 70
     0
  9
$PUCSORGTOP
 10
0.0
 20
0.0
 30
0.0
  9
$PUCSORGBOTTOM
 10
0.0
 20
0.0
 30
0.0
  9
$PUCSORGLEFT
 10
0.0
 20
0.0
 30
0.0
  9
$PUCSORGRIGHT
 10
0.0
 20
0.0
 30
0.0
  9
$PUCSORGFRONT
 10
0.0
 20
0.0
 30
0.0
  9
$PUCSORGBACK
 10
0.0
 20
0.0
 30
0.0
  9
$USERI1
 70
     0
  9
$USERI2
 70
     0
  9
$USERI3
 70
     0
  9
$USERI4
 70
     0
  9
$USERI5
 70
     0
  9
$USERR1
 40
0.0
  9
$USERR2
 40
0.0
  9
$USERR3
 40
0.0
  9
$USERR4
 40
0.0
  9
$USERR5
 40
0.0
  9
$WORLDVIEW
 70
     1
  9
$SHADEDGE
 70
     3
  9
$SHADEDIF
 70
    70
  9
$TILEMODE
 70
     1
  9
$MAXACTVP
 70
    64
  9
$PINSBASE
 10
0.0
 20
0.0
 30
0.0
  9
$PLIMCHECK
 70
     0
  9
$PEXTMIN
 10
1.000000000000000E+20
 20
1.000000000000000E+20
 30
1.000000000000000E+20
  9
$PEXTMAX
 10
-1.000000000000000E+20
 20
-1.000000000000000E+20
 30
-1.000000000000000E+20
  9
$PLIMMIN
 10
-20.0
 20
-7.5
  9
$PLIMMAX
 10
277.0
 20
202.5
  9
$UNITMODE
 70
     0
  9
$VISRETAIN
 70
     1
  9
$PLINEGEN
 70
     0
  9
$PSLTSCALE
 70
     1
  9
$TREEDEPTH
 70
  3020
  9
$CMLSTYLE
  2
Standard
  9
$CMLJUST
 70
     0
  9
$CMLSCALE
 40
20.0
  9
$PROXYGRAPHICS
 70
     1
  9
$MEASUREMENT
 70
     1
  9
$CELWEIGHT
370
    -1
  9
$ENDCAPS
280
     0
  9
$JOINSTYLE
280
     0
  9
$LWDISPLAY
290
     0
  9
$INSUNITS
 70
     4
  9
$HYPERLINKBASE
  1

  9
$STYLESHEET
  1
ksm0910.ctb
  9
$XEDIT
290
     1
  9
$CEPSNTYPE
380
     0
  9
$PSTYLEMODE
290
     1
  9
$FINGERPRINTGUID
  2
{D2C70C36-9B4F-4E20-9CCB-531AA1EE4AC8}
  9
$VERSIONGUID
  2
{569015AD-0756-4AE5-9EE1-E5377FA039AE}
  9
$EXTNAMES
290
     1
  9
$PSVPSCALE
 40
0.0
  9
$OLESTARTUP
290
     0
  9
$SORTENTS
280
   127
  9
$INDEXCTL
280
     0
  9
$HIDETEXT
280
     1
  9
$XCLIPFRAME
280
     2
  9
$HALOGAP
280
     0
  9
$OBSCOLOR
 70
   257
  9
$OBSLTYPE
280
     0
  9
$INTERSECTIONDISPLAY
280
     0
  9
$INTERSECTIONCOLOR
 70
   257
  9
$DIMASSOC
280
     1
  9
$PROJECTNAME
  1

  9
$CAMERADISPLAY
290
     0
  9
$LENSLENGTH
 40
50.0
  9
$CAMERAHEIGHT
 40
0.0
  9
$STEPSPERSEC
 40
2.0
  9
$STEPSIZE
 40
6.0
  9
$3DDWFPREC
 40
2.0
  9
$PSOLWIDTH
 40
5.0
  9
$PSOLHEIGHT
 40
80.0
  9
$LOFTANG1
 40
1.570796326794896
  9
$LOFTANG2
 40
1.570796326794896
  9
$LOFTMAG1
 40
0.0
  9
$LOFTMAG2
 40
0.0
  9
$LOFTPARAM
 70
     7
  9
$LOFTNORMALS
280
     1
  9
$LATITUDE
 40
37.795
  9
$LONGITUDE
 40
-122.394
  9
$NORTHDIRECTION
 40
0.0
  9
$TIMEZONE
 70
 -8000
  9
$LIGHTGLYPHDISPLAY
280
     1
  9
$TILEMODELIGHTSYNCH
280
     1
  9
$CMATERIAL
347
3D
  9
$SOLIDHIST
280
     1
  9
$SHOWHIST
280
     1
  9
$DWFFRAME
280
     2
  9
$DGNFRAME
280
     0
  9
$REALWORLDSCALE
290
     1
  9
$INTERFERECOLOR
 62
     1
  9
$INTERFEREOBJVS
345
46
  9
$INTERFEREVPVS
346
47
  9
$CSHADOW
280
     0
  9
$SHADOWPLANELOCATION
 40
0.0
  0
ENDSEC
  0
SECTION
  2
CLASSES
  0
CLASS
  1
ACDBDICTIONARYWDFLT
  2
AcDbDictionaryWithDefault
  3
ObjectDBX Classes
 90
        0
 91
        1
280
     0
281
     0
  0
CLASS
  1
DICTIONARYVAR
  2
AcDbDictionaryVar
  3
ObjectDBX Classes
 90
        0
 91
       18
280
     0
281
     0
  0
CLASS
  1
TABLESTYLE
  2
AcDbTableStyle
  3
ObjectDBX Classes
 90
     4095
 91
        1
280
     0
281
     0
  0
CLASS
  1
MATERIAL
  2
AcDbMaterial
  3
ObjectDBX Classes
 90
     1153
 91
        3
280
     0
281
     0
  0
CLASS
  1
VISUALSTYLE
  2
AcDbVisualStyle
  3
ObjectDBX Classes
 90
     4095
 91
       26
280
     0
281
     0
  0
CLASS
  1
SCALE
  2
AcDbScale
  3
ObjectDBX Classes
 90
     1153
 91
       17
280
     0
281
     0
  0
CLASS
  1
MLEADERSTYLE
  2
AcDbMLeaderStyle
  3
ACDB_MLEADERSTYLE_CLASS
 90
     4095
 91
        1
280
     0
281
     0
  0
CLASS
  1
CELLSTYLEMAP
  2
AcDbCellStyleMap
  3
ObjectDBX Classes
 90
     1152
 91
        2
280
     0
281
     0
  0
CLASS
  1
SORTENTSTABLE
  2
AcDbSortentsTable
  3
ObjectDBX Classes
 90
        0
 91
        1
280
     0
281
     0
  0
CLASS
  1
DIMASSOC
  2
AcDbDimAssoc
  3
"AcDbDimAssoc|Product Desc:     AcDim ARX App For Dimension|Company:          Autodesk, Inc.|WEB Address:      www.autodesk.com"
 90
        0
 91
        0
280
     0
281
     0
  0
CLASS
  1
SOLID_BACKGROUND
  2
AcDbSolidBackground
  3
SCENEOE
 90
     4095
 91
        0
280
     0
281
     0
  0
CLASS
  1
NPOCOLLECTION
  2
AcDbImpNonPersistentObjectsCollection
  3
ObjectDBX Classes
 90
     1153
 91
        0
280
     0
281
     0
  0
CLASS
  1
ACAD_EVALUATION_GRAPH
  2
AcDbEvalGraph
  3
ObjectDBX Classes
 90
     1153
 91
        0
280
     0
281
     0
  0
CLASS
  1
ACAECUSTOBJ
  2
AcAeEditorObj
  3
AcAeEditorObj
 90
     1024
 91
        0
280
     1
281
     0
  0
CLASS
  1
ACDB_DYNAMICBLOCKPURGEPREVENTER_VERSION
  2
AcDbDynamicBlockPurgePreventer
  3
ObjectDBX Classes
 90
     1153
 91
        0
280
     0
281
     0
  0
CLASS
  1
HELIX
  2
AcDbHelix
  3
ObjectDBX Classes
 90
     4095
 91
        0
280
     0
281
     1
  0
CLASS
  1
MULTILEADER
  2
AcDbMLeader
  3
ACDB_MLEADER_CLASS
 90
     1025
 91
        0
280
     0
281
     1
  0
CLASS
  1
ACMDIMBREAKPERSREACTOR
  2
AcmDimBreakPersReactor
  3
amgDimApp().moduleName()
 90
     1023
 91
        0
280
     1
281
     0
  0
CLASS
  1
ACDB_MTEXTOBJECTCONTEXTDATA_CLASS
  2
AcDbMTextObjectContextData
  3
ObjectDBX Classes
 90
     1153
 91
        0
280
     0
281
     0
  0
CLASS
  1
BREAKDATA
  2
AcDbBreakData
  3
ObjectDBX Classes
 90
     1024
 91
        0
280
     0
281
     0
  0
CLASS
  1
EXACXREFPANELOBJECT
  2
ExAcXREFPanelObject
  3
EXAC_ESW
 90
     1025
 91
        0
280
     1
281
     0
  0
CLASS
  1
ACDBSECTIONVIEWSTYLE
  2
AcDbSectionViewStyle
  3
ObjectDBX Classes
 90
     1025
 91
        2
280
     0
281
     0
  0
CLASS
  1
ACDBDETAILVIEWSTYLE
  2
AcDbDetailViewStyle
  3
ObjectDBX Classes
 90
     1025
 91
        2
280
     0
281
     0
  0
CLASS
  1
ACDBASSOCACTION
  2
AcDbAssocAction
  3
ObjectDBX Classes
 90
     1025
 91
        1
280
     0
281
     0
  0
CLASS
  1
ACDBASSOCARRAYACTIONBODY
  2
AcDbAssocArrayActionBody
  3
ObjectDBX Classes
 90
     1025
 91
        1
280
     0
281
     0
  0
CLASS
  1
ACDBASSOCDEPENDENCY
  2
AcDbAssocDependency
  3
ObjectDBX Classes
 90
     1025
 91
        3
280
     0
281
     0
  0
CLASS
  1
ACDBASSOCVERTEXACTIONPARAM
  2
AcDbAssocVertexActionParam
  3
ObjectDBX Classes
 90
     1025
 91
        3
280
     0
281
     0
  0
CLASS
  1
ACDBASSOCARRAYPOLARPARAMETERS
  2
AcDbAssocArrayPolarParameters
  3
ObjectDBX Classes
 90
     1025
 91
        0
280
     0
281
     0
  0
CLASS
  1
ACDBASSOCNETWORK
  2
AcDbAssocNetwork
  3
ObjectDBX Classes
 90
     1025
 91
        2
280
     0
281
     0
  0
CLASS
  1
ACARRAYJIGENTITY
  2
AcArrayJigEntity
  3
ACAD_ARRAY
 90
      129
 91
        0
280
     0
281
     1
  0
ENDSEC
  0
SECTION
  2
TABLES
  0
TABLE
  2
VPORT
  5
2C
102
{ACAD_XDICTIONARY
360
31
102
}
330
0
100
AcDbSymbolTable
 70
     1
  0
VPORT
  5
2D
330
2C
100
AcDbSymbolTableRecord
100
AcDbViewportTableRecord
  2
*Active
 70
     0
 10
0.0
 20
0.0
 11
1.0
 21
1.0
 12
116.0254373045052
 22
81.1116357283794
 13
0.0
 23
0.0
 14
2.0
 24
2.0
 15
2.0
 25
2.0
 16
0.0
 26
0.0
 36
1.0
 17
0.0
 27
0.0
 37
0.0
 40
168.1017340533988
 41
2.176540284360189
 42
50.0
 43
0.0
 44
0.0
 50
0.0
 51
0.0
 71
     0
 72
  1000
 73
     1
 74
     3
 75
     0
 76
     0
 77
     0
 78
     1
281
     0
 65
     1
110
0.0
120
0.0
130
0.0
111
1.0
121
0.0
131
0.0
112
0.0
122
1.0
132
0.0
 79
     0
146
0.0
348
2E
 60
     3
 61
     5
292
     1
282
     1
141
0.0
142
0.0
 63
   250
421
  3355443
1001
ACAD_NAV_VCDISPLAY
1070
     3
  0
ENDTAB
  0
TABLE
  2
LTYPE
  5
27
330
0
100
AcDbSymbolTable
 70
     3
  0
LTYPE
  5
28
330
27
100
AcDbSymbolTableRecord
100
AcDbLinetypeTableRecord
  2
ByBlock
 70
     0
  3

 72
    65
 73
     0
 40
0.0
  0
LTYPE
  5
29
330
27
100
AcDbSymbolTableRecord
100
AcDbLinetypeTableRecord
  2
ByLayer
 70
     0
  3

 72
    65
 73
     0
 40
0.0
  0
LTYPE
  5
14
330
27
100
AcDbSymbolTableRecord
100
AcDbLinetypeTableRecord
  2
Continuous
 70
     0
  3
Solid line
 72
    65
 73
     0
 40
0.0
  0
LTYPE
  5
4DD
330
27
100
AcDbSymbolTableRecord
100
AcDbLinetypeTableRecord
  2
CENTER
 70
     0
  3
____ _ ____ _ ____ _ ____ _ ____ _ ____ _ ____ 
 72
    65
 73
     4
 40
2.0
 49
1.25
 74
     0
 49
-0.25
 74
     0
 49
0.25
 74
     0
 49
-0.25
 74
     0
  0
LTYPE
  5
43B1A
330
27
100
AcDbSymbolTableRecord
100
AcDbLinetypeTableRecord
  2
CENTER2
 70
     0
  3
Center (.5x) ___ _ ___ _ ___ _ ___ _ ___ _ ___
 72
    65
 73
     4
 40
1.125
 49
0.75
 74
     0
 49
-0.125
 74
     0
 49
0.125
 74
     0
 49
-0.125
 74
     0
  0
ENDTAB
  0
TABLE
  2
LAYER
  5
21
102
{ACAD_XDICTIONARY
360
22
102
}
330
0
100
AcDbSymbolTable
 70
     3
  0
LAYER
  5
6
102
{ACAD_XDICTIONARY
360
7
102
}
330
21
100
AcDbSymbolTableRecord
100
AcDbLayerTableRecord
  2
0
 70
     0
 62
     7
  6
Continuous
370
    -3
390
9
347
C
348
0
  0
LAYER
  5
1A4
330
21
100
AcDbSymbolTableRecord
100
AcDbLayerTableRecord
  2
DEFPOINTS
 70
     0
 62
     7
  6
Continuous
290
     0
370
    -3
390
9
347
C
348
0
  0
LAYER
  5
283CB
330
21
100
AcDbSymbolTableRecord
100
AcDbLayerTableRecord
  2
Layer 1
 70
     0
 62
     7
  6
Continuous
370
     0
390
9
347
C
348
0
  0
ENDTAB
  0
TABLE
  2
STYLE
  5
24
330
0
100
AcDbSymbolTable
 70
     4
  0
STYLE
  5
25
330
24
100
AcDbSymbolTableRecord
100
AcDbTextStyleTableRecord
  2
Standard
 70
     0
 40
3.0
 41
1.0
 50
0.0
 71
     0
 42
3.0
  3
isocp.shx
  4
whgtxt.shx
  0
STYLE
  5
35
330
24
100
AcDbSymbolTableRecord
100
AcDbTextStyleTableRecord
  2
ROMANS
 70
     0
 40
2.5
 41
1.0
 50
0.0
 71
     0
 42
2.5
  3
romans.shx
  4

  0
STYLE
  5
5C
330
24
100
AcDbSymbolTableRecord
100
AcDbTextStyleTableRecord
  2
굴림
 70
     0
 40
3.0
 41
1.0
 50
0.0
 71
     0
 42
3.0
  3

  4

1001
ACAD
1000
Gulim
1071
    33074
  0
ENDTAB
  0
TABLE
  2
VIEW
  5
2A
330
0
100
AcDbSymbolTable
 70
     0
  0
ENDTAB
  0
TABLE
  2
UCS
  5
2B
330
0
100
AcDbSymbolTable
 70
     0
  0
ENDTAB
  0
TABLE
  2
APPID
  5
32
330
0
100
AcDbSymbolTable
 70
    44
  0
APPID
  5
13
330
32
100
AcDbSymbolTableRecord
100
AcDbRegAppTableRecord
  2
ACAD
 70
     0
  0
APPID
  5
1A
330
32
100
AcDbSymbolTableRecord
100
AcDbRegAppTableRecord
  2
ACAD_PSEXT
 70
     0
  0
APPID
  5
37
330
32
100
AcDbSymbolTableRecord
100
AcDbRegAppTableRecord
  2
ACAD_DSTYLE_DIMJAG
 70
     0
  0
APPID
  5
38
330
32
100
AcDbSymbolTableRecord
100
AcDbRegAppTableRecord
  2
ACAD_DSTYLE_DIMTALN
 70
     0
  0
APPID
  5
36
330
32
100
AcDbSymbolTableRecord
100
AcDbRegAppTableRecord
  2
ACAD_DSTYLE_DIMJOGGED_JOGANGLE_SYMBOL
 70
     0
  0
APPID
  5
183
330
32
100
AcDbSymbolTableRecord
100
AcDbRegAppTableRecord
  2
AcAecLayerStandard
 70
     0
  0
APPID
  5
3DE
330
32
100
AcDbSymbolTableRecord
100
AcDbRegAppTableRecord
  2
ACAD_DSTYLE_DIMRADIAL_EXTENSION
 70
     0
  0
APPID
  5
530
330
32
100
AcDbSymbolTableRecord
100
AcDbRegAppTableRecord
  2
GRADIENTCOLOR1ACI
 70
     0
  0
APPID
  5
531
330
32
100
AcDbSymbolTableRecord
100
AcDbRegAppTableRecord
  2
GRADIENTCOLOR2ACI
 70
     0
  0
APPID
  5
30
330
32
100
AcDbSymbolTableRecord
100
AcDbRegAppTableRecord
  2
ACAD_NAV_VCDISPLAY
 70
     0
  0
APPID
  5
C34
330
32
100
AcDbSymbolTableRecord
100
AcDbRegAppTableRecord
  2
ACAD_MLEADERVER
 70
     0
  0
APPID
  5
C97
330
32
100
AcDbSymbolTableRecord
100
AcDbRegAppTableRecord
  2
ACAD_EXEMPT_FROM_CAD_STANDARDS
 70
     0
  0
APPID
  5
D79
330
32
100
AcDbSymbolTableRecord
100
AcDbRegAppTableRecord
  2
AcadAnnoMonitorAlertIconDisabled
 70
     0
  0
APPID
  5
1A45
330
32
100
AcDbSymbolTableRecord
100
AcDbRegAppTableRecord
  2
GENIUS_GENODEF_13
 70
     0
  0
APPID
  5
1A46
330
32
100
AcDbSymbolTableRecord
100
AcDbRegAppTableRecord
  2
GENIUS_GENOBJ-N-FIL_13
 70
     0
  0
APPID
  5
1A47
330
32
100
AcDbSymbolTableRecord
100
AcDbRegAppTableRecord
  2
ACAD_DSTYLE_DIMBREAK
 70
     0
  0
APPID
  5
1A48
330
32
100
AcDbSymbolTableRecord
100
AcDbRegAppTableRecord
  2
GENIUS_GENOBJ-N-HTC_13
 70
     0
  0
APPID
  5
1A49
330
32
100
AcDbSymbolTableRecord
100
AcDbRegAppTableRecord
  2
GENIUS_GENHATCH_13
 70
     0
  0
APPID
  5
1A4A
330
32
100
AcDbSymbolTableRecord
100
AcDbRegAppTableRecord
  2
GENIUS_GENREC_14
 70
     0
  0
APPID
  5
1A4B
330
32
100
AcDbSymbolTableRecord
100
AcDbRegAppTableRecord
  2
GENIUS_GENOBJ-N-REC_13
 70
     0
  0
APPID
  5
1A4C
330
32
100
AcDbSymbolTableRecord
100
AcDbRegAppTableRecord
  2
ACAUTHENVIRON
 70
     0
  0
APPID
  5
1A4D
330
32
100
AcDbSymbolTableRecord
100
AcDbRegAppTableRecord
  2
AcDbDynamicBlockTrueName
 70
     0
  0
APPID
  5
1A4E
330
32
100
AcDbSymbolTableRecord
100
AcDbRegAppTableRecord
  2
AcDbDynamicBlockGUID
 70
     0
  0
APPID
  5
1A4F
330
32
100
AcDbSymbolTableRecord
100
AcDbRegAppTableRecord
  2
AcDbBlockRepETag
 70
     0
  0
APPID
  5
1A50
330
32
100
AcDbSymbolTableRecord
100
AcDbRegAppTableRecord
  2
DCO15
 70
     0
  0
APPID
  5
1A51
330
32
100
AcDbSymbolTableRecord
100
AcDbRegAppTableRecord
  2
ACAD_DSTYLE_DIMTEXT_FILL
 70
     0
  0
APPID
  5
1A52
330
32
100
AcDbSymbolTableRecord
100
AcDbRegAppTableRecord
  2
ACAD_DSTYLE_DIM_LINETYPE
 70
     0
  0
APPID
  5
1A53
330
32
100
AcDbSymbolTableRecord
100
AcDbRegAppTableRecord
  2
ACAD_DSTYLE_DIM_EXT1_LINETYPE
 70
     0
  0
APPID
  5
1A54
330
32
100
AcDbSymbolTableRecord
100
AcDbRegAppTableRecord
  2
ACAD_DSTYLE_DIM_EXT2_LINETYPE
 70
     0
  0
APPID
  5
1A55
330
32
100
AcDbSymbolTableRecord
100
AcDbRegAppTableRecord
  2
ACAD_DSTYLE_DIMINSPECT
 70
     0
  0
APPID
  5
1A56
330
32
100
AcDbSymbolTableRecord
100
AcDbRegAppTableRecord
  2
AcadAnnotative
 70
     0
  0
APPID
  5
1A57
330
32
100
AcDbSymbolTableRecord
100
AcDbRegAppTableRecord
  2
GENIUS_GENDTOL_13
 70
     0
  0
APPID
  5
1A58
330
32
100
AcDbSymbolTableRecord
100
AcDbRegAppTableRecord
  2
GENIUS_GENFIL_13
 70
     0
  0
APPID
  5
1A59
330
32
100
AcDbSymbolTableRecord
100
AcDbRegAppTableRecord
  2
GENIUS_GENOBJ-N-CHA_13
 70
     0
  0
APPID
  5
1A5A
330
32
100
AcDbSymbolTableRecord
100
AcDbRegAppTableRecord
  2
AcadAnnotativeDecomposition
 70
     0
  0
APPID
  5
1A5B
330
32
100
AcDbSymbolTableRecord
100
AcDbRegAppTableRecord
  2
MCAD_NO_VIS
 70
     0
  0
APPID
  5
1A5C
330
32
100
AcDbSymbolTableRecord
100
AcDbRegAppTableRecord
  2
ACAD_TEMP_GRAPHIC
 70
     0
  0
APPID
  5
1A5D
330
32
100
AcDbSymbolTableRecord
100
AcDbRegAppTableRecord
  2
ACATTRIBSERVICES
 70
     0
  0
APPID
  5
1A5E
330
32
100
AcDbSymbolTableRecord
100
AcDbRegAppTableRecord
  2
DESIGNERASSEMBLIES
 70
     0
  0
APPID
  5
1A5F
330
32
100
AcDbSymbolTableRecord
100
AcDbRegAppTableRecord
  2
GENIUS_GENDIMSH_14
 70
     0
  0
APPID
  5
1A60
330
32
100
AcDbSymbolTableRecord
100
AcDbRegAppTableRecord
  2
ACAD_DSTYLE_DIMARC_LENGTH_SYMBOL
 70
     0
  0
APPID
  5
1A61
330
32
100
AcDbSymbolTableRecord
100
AcDbRegAppTableRecord
  2
ACAD_SPLINE_DATA
 70
     0
  0
APPID
  5
1A62
330
32
100
AcDbSymbolTableRecord
100
AcDbRegAppTableRecord
  2
GENIUS_GENOREF_13
 70
     0
  0
APPID
  5
1A63
330
32
100
AcDbSymbolTableRecord
100
AcDbRegAppTableRecord
  2
ACAD_DSTYLE_DIMANGULAR_EXTENSION
 70
     0
  0
ENDTAB
  0
TABLE
  2
DIMSTYLE
  5
33
330
0
100
AcDbSymbolTable
 70
     3
100
AcDbDimStyleTable
 71
     1
340
34
  0
DIMSTYLE
105
34
330
33
100
AcDbSymbolTableRecord
100
AcDbDimStyleTableRecord
  2
Standard
 70
     0
 41
2.5
 73
     0
 77
     3
 78
     8
140
2.5
141
-1.0
147
1.0
175
     1
176
     3
177
     3
178
     2
179
     8
271
     8
272
     8
275
     1
340
35
1001
ACAD_DSTYLE_DIMJOGGED_JOGANGLE_SYMBOL
1070
   384
1040
0.7853981633974483
1001
ACAD_DSTYLE_DIMJAG
1070
   388
1040
1.5
1001
ACAD_DSTYLE_DIMTALN
1070
   392
1070
     0
  0
DIMSTYLE
105
1A8
102
{ACAD_REACTORS
330
3FE03
330
3FE04
330
4C316
102
}
330
33
100
AcDbSymbolTableRecord
100
AcDbDimStyleTableRecord
  2
Standard$0
 70
     0
 41
2.5
 73
     0
 77
     3
 78
     8
140
2.5
141
-1.0
147
1.0
175
     1
176
     3
177
     3
178
     2
179
     8
271
     8
272
     8
275
     1
340
35
  0
ENDTAB
  0
TABLE
  2
BLOCK_RECORD
  5
1
330
0
100
AcDbSymbolTable
 70
     6
  0
BLOCK_RECORD
  5
2
102
{ACAD_XDICTIONARY
360
3
102
}
330
1
100
AcDbSymbolTableRecord
100
AcDbBlockTableRecord
  2
*Model_Space
340
16
 70
     0
280
     1
281
     0
  0
BLOCK_RECORD
  5
1B
330
1
100
AcDbSymbolTableRecord
100
AcDbBlockTableRecord
  2
*Paper_Space
340
1E
 70
     0
280
     1
281
     0
  0
BLOCK_RECORD
  5
3FE06
330
1
100
AcDbSymbolTableRecord
100
AcDbBlockTableRecord
  2
*D0
340
0
 70
     0
280
     1
281
     0
  0
BLOCK_RECORD
  5
3FE10
330
1
100
AcDbSymbolTableRecord
100
AcDbBlockTableRecord
  2
*D1
340
0
 70
     0
280
     1
281
     0
  0
BLOCK_RECORD
  5
4C317
330
1
100
AcDbSymbolTableRecord
100
AcDbBlockTableRecord
  2
*D2
340
0
 70
     0
280
     1
281
     0
  0
BLOCK_RECORD
  5
4CC46
102
{ACAD_REACTORS
330
4CC5A
102
}
330
1
100
AcDbSymbolTableRecord
100
AcDbBlockTableRecord
  2
*U3
340
0
102
{BLKREFS
331
4CC50
331
4CC51
331
4CC52
331
4CC53
331
4CC54
331
4CC55
102
}
 70
     0
280
     1
281
     0
  0
BLOCK_RECORD
  5
4CC4D
102
{ACAD_XDICTIONARY
360
4CC4E
102
}
102
{ACAD_REACTORS
330
4CC59
102
}
330
1
100
AcDbSymbolTableRecord
100
AcDbBlockTableRecord
  2
*U4
340
0
102
{BLKREFS
331
4CC35
102
}
 70
     0
280
     1
281
     1
  0
ENDTAB
  0
ENDSEC
  0
SECTION
  2
BLOCKS
  0
BLOCK
  5
5
330
2
100
AcDbEntity
  8
0
100
AcDbBlockBegin
  2
*Model_Space
 70
     0
 10
0.0
 20
0.0
 30
0.0
  3
*Model_Space
  1

  0
ENDBLK
  5
15
330
2
100
AcDbEntity
  8
0
100
AcDbBlockEnd
  0
BLOCK
  5
1C
330
1B
100
AcDbEntity
 67
     1
  8
0
100
AcDbBlockBegin
  2
*Paper_Space
 70
     0
 10
0.0
 20
0.0
 30
0.0
  3
*Paper_Space
  1

  0
ENDBLK
  5
1D
330
1B
100
AcDbEntity
 67
     1
  8
0
100
AcDbBlockEnd
  0
BLOCK
  5
3FE07
330
3FE06
100
AcDbEntity
  8
0
 62
     7
100
AcDbBlockBegin
  2
*D0
 70
     1
 10
0.0
 20
0.0
 30
0.0
  3
*D0
  1

  0
LINE
  5
4CE13
330
3FE06
100
AcDbEntity
  8
0
  6
Continuous
 62
     3
440
 16777216
100
AcDbLine
 10
107.8051007648042
 20
92.07181720257953
 30
0.0
 11
119.2455746147958
 21
92.07181720257953
 31
0.0
  0
LINE
  5
4CE14
330
3FE06
100
AcDbEntity
  8
0
  6
Continuous
 62
     3
440
 16777216
100
AcDbLine
 10
117.9955746147958
 20
89.57181720257953
 30
0.0
 11
117.9955746147958
 21
74.51817476227782
 31
0.0
  0
SOLID
  5
4CE15
330
3FE06
100
AcDbEntity
  8
0
  6
Continuous
 62
     3
440
 16777216
100
AcDbTrace
 10
117.5789079481291
 20
89.57181720257953
 30
0.0
 11
118.4122412814624
 21
89.57181720257953
 31
0.0
 12
117.9955746147958
 22
92.07181720257953
 32
0.0
 13
117.9955746147958
 23
92.07181720257953
 33
0.0
  0
MTEXT
  5
4CE16
330
3FE06
100
AcDbEntity
  8
0
  6
Continuous
 62
     2
440
 16777216
100
AcDbMText
 10
115.7205746147957
 20
86.32181720257957
 30
0.0
 40
3.0
 41
0.0
 46
0.0
 71
     5
 72
     1
  1
%%C.1969(5 MM)
 11
0.0000000000000001
 21
1.0
 31
0.0
 73
     1
 44
1.0
  0
POINT
  5
4CE17
330
3FE06
100
AcDbEntity
  8
DEFPOINTS
  6
Continuous
 62
     0
440
 16777216
100
AcDbPoint
 10
106.6801007648244
 20
80.57181720257956
 30
0.0
  0
POINT
  5
4CE18
330
3FE06
100
AcDbEntity
  8
DEFPOINTS
  6
Continuous
 62
     0
440
 16777216
100
AcDbPoint
 10
107.1801007648042
 20
92.07181720257953
 30
0.0
  0
POINT
  5
4CE19
330
3FE06
100
AcDbEntity
  8
DEFPOINTS
  6
Continuous
 62
     0
440
 16777216
100
AcDbPoint
 10
117.9955746147958
 20
92.07181720257953
 30
0.0
  0
ENDBLK
  5
3FE08
330
3FE06
100
AcDbEntity
  8
0
 62
     7
100
AcDbBlockEnd
  0
BLOCK
  5
3FE11
330
3FE10
100
AcDbEntity
  8
0
 62
     7
100
AcDbBlockBegin
  2
*D1
 70
     1
 10
0.0
 20
0.0
 30
0.0
  3
*D1
  1

  0
LINE
  5
4CE1A
330
3FE10
100
AcDbEntity
  8
0
  6
Continuous
 62
     3
440
 16777216
100
AcDbLine
 10
108.0051007648242
 20
69.07181720257955
 30
0.0
 11
127.2455746147957
 21
69.07181720257955
 31
0.0
  0
LINE
  5
4CE1B
330
3FE10
100
AcDbEntity
  8
0
  6
Continuous
 62
     3
440
 16777216
100
AcDbLine
 10
108.0051007648242
 20
110.0718172025795
 30
0.0
 11
127.2455746147957
 21
110.0718172025795
 31
0.0
  0
LINE
  5
4CE1C
330
3FE10
100
AcDbEntity
  8
0
  6
Continuous
 62
     3
440
 16777216
100
AcDbLine
 10
125.9955746147957
 20
71.57181720257955
 30
0.0
 11
125.9955746147958
 21
107.5718172025795
 31
0.0
  0
SOLID
  5
4CE1D
330
3FE10
100
AcDbEntity
  8
0
  6
Continuous
 62
     3
440
 16777216
100
AcDbTrace
 10
125.5789079481291
 20
71.57181720257955
 30
0.0
 11
126.4122412814624
 21
71.57181720257955
 31
0.0
 12
125.9955746147957
 22
69.07181720257955
 32
0.0
 13
125.9955746147957
 23
69.07181720257955
 33
0.0
  0
SOLID
  5
4CE1E
330
3FE10
100
AcDbEntity
  8
0
  6
Continuous
 62
     3
440
 16777216
100
AcDbTrace
 10
125.5789079481291
 20
107.5718172025795
 30
0.0
 11
126.4122412814624
 21
107.5718172025795
 31
0.0
 12
125.9955746147958
 22
110.0718172025795
 32
0.0
 13
125.9955746147958
 23
110.0718172025795
 33
0.0
  0
MTEXT
  5
4CE1F
330
3FE10
100
AcDbEntity
  8
0
  6
Continuous
 62
     2
440
 16777216
100
AcDbMText
 10
123.8705746147957
 20
89.57181720257956
 30
0.0
 40
3.0
 41
0.0
 46
0.0
 71
     5
 72
     1
  1
%%C1.61
 11
0.0000000000000001
 21
1.0
 31
0.0
 73
     1
 44
1.0
  0
POINT
  5
4CE20
330
3FE10
100
AcDbEntity
  8
DEFPOINTS
  6
Continuous
 62
     0
440
 16777216
100
AcDbPoint
 10
107.3801007648242
 20
69.07181720257955
 30
0.0
  0
POINT
  5
4CE21
330
3FE10
100
AcDbEntity
  8
DEFPOINTS
  6
Continuous
 62
     0
440
 16777216
100
AcDbPoint
 10
107.3801007648242
 20
110.0718172025795
 30
0.0
  0
POINT
  5
4CE22
330
3FE10
100
AcDbEntity
  8
DEFPOINTS
  6
Continuous
 62
     0
440
 16777216
100
AcDbPoint
 10
125.9955746147958
 20
110.0718172025795
 30
0.0
  0
ENDBLK
  5
3FE12
330
3FE10
100
AcDbEntity
  8
0
 62
     7
100
AcDbBlockEnd
  0
BLOCK
  5
4C318
330
4C317
100
AcDbEntity
  8
0
 62
     7
100
AcDbBlockBegin
  2
*D2
 70
     1
 10
0.0
 20
0.0
 30
0.0
  3
*D2
  1

  0
LINE
  5
4CE23
330
4C317
100
AcDbEntity
  8
0
 62
     3
440
 16777216
100
AcDbLine
 10
75.68010076481471
 20
76.87181720257997
 30
0.0
 11
70.72821889491355
 21
76.87181720257997
 31
0.0
  0
LINE
  5
4CE24
330
4C317
100
AcDbEntity
  8
0
 62
     3
440
 16777216
100
AcDbLine
 10
75.68010076481039
 20
102.271817202579
 30
0.0
 11
70.72821889491357
 21
102.271817202579
 31
0.0
  0
LINE
  5
4CE25
330
4C317
100
AcDbEntity
  8
0
 62
     3
440
 16777216
100
AcDbLine
 10
71.97821889491355
 20
79.37181720257997
 30
0.0
 11
71.97821889491357
 21
99.77181720257901
 31
0.0
  0
LINE
  5
4CE26
330
4C317
100
AcDbEntity
  8
0
 62
     3
440
 16777216
100
AcDbLine
 10
71.97821889491357
 20
102.271817202579
 30
0.0
 11
71.97821889491357
 21
116.8195741873651
 31
0.0
  0
SOLID
  5
4CE27
330
4C317
100
AcDbEntity
  8
0
 62
     3
440
 16777216
100
AcDbTrace
 10
71.56155222824688
 20
79.37181720257997
 30
0.0
 11
72.39488556158022
 21
79.37181720257997
 31
0.0
 12
71.97821889491355
 22
76.87181720257997
 32
0.0
 13
71.97821889491355
 23
76.87181720257997
 33
0.0
  0
SOLID
  5
4CE28
330
4C317
100
AcDbEntity
  8
0
 62
     3
440
 16777216
100
AcDbTrace
 10
71.5615522282469
 20
99.77181720257901
 30
0.0
 11
72.39488556158024
 21
99.77181720257901
 31
0.0
 12
71.97821889491357
 22
102.271817202579
 32
0.0
 13
71.97821889491357
 23
102.271817202579
 33
0.0
  0
MTEXT
  5
4CE29
330
4C317
100
AcDbEntity
  8
0
 62
     2
440
 16777216
100
AcDbMText
 10
69.85321889491354
 20
110.943393085003
 30
0.0
 40
3.0
 41
0.0
 46
0.0
 71
     5
 72
     1
  1
%%C1.000
 11
0.0000000000000001
 21
1.0
 31
0.0
 73
     1
 44
1.0
  0
POINT
  5
4CE2A
330
4C317
100
AcDbEntity
  8
DEFPOINTS
 62
     0
440
 16777216
100
AcDbPoint
 10
76.30510076481471
 20
76.87181720257997
 30
0.0
  0
POINT
  5
4CE2B
330
4C317
100
AcDbEntity
  8
DEFPOINTS
 62
     0
440
 16777216
100
AcDbPoint
 10
76.30510076481039
 20
102.271817202579
 30
0.0
  0
POINT
  5
4CE2C
330
4C317
100
AcDbEntity
  8
DEFPOINTS
 62
     0
440
 16777216
100
AcDbPoint
 10
71.97821889491357
 20
102.271817202579
 30
0.0
  0
ENDBLK
  5
4C319
330
4C317
100
AcDbEntity
  8
0
 62
     7
100
AcDbBlockEnd
  0
BLOCK
  5
4CC47
330
4CC46
100
AcDbEntity
  8
0
100
AcDbBlockBegin
  2
*U3
 70
     1
 10
0.0
 20
0.0
 30
0.0
  3
*U3
  1

  0
ARC
  5
4CC48
330
4CC46
100
AcDbEntity
  8
0
  6
Continuous
 62
     3
100
AcDbCircle
 10
-0.1019919929611888
 20
0.0000000000000284
 30
0.0
 40
2.5
100
AcDbArc
 50
246.2224425079727
 51
156.6942100949507
  0
CIRCLE
  5
4CC49
330
4CC46
100
AcDbEntity
  8
0
  6
Continuous
 62
     7
100
AcDbCircle
 10
-0.1019919929611888
 20
0.0000000000000284
 30
0.0
 40
2.149999999999999
  0
ENDBLK
  5
4CC4A
330
4CC46
100
AcDbEntity
  8
0
100
AcDbBlockEnd
  0
BLOCK
  5
4CC4F
330
4CC4D
100
AcDbEntity
  8
0
100
AcDbBlockBegin
  2
*U4
 70
     1
 10
0.0
 20
0.0
 30
0.0
  3
*U4
  1

  0
INSERT
  5
4CC50
330
4CC4D
100
AcDbEntity
  8
0
  6
ByBlock
347
3E
 62
     0
440
 16777216
370
    -2
380
     1
100
AcDbBlockReference
  2
*U3
 10
324.3486555669998
 20
159.7650269865458
 30
0.0
  0
INSERT
  5
4CC51
330
4CC4D
100
AcDbEntity
  8
0
  6
ByBlock
347
3E
 62
     0
440
 16777216
370
    -2
380
     1
100
AcDbBlockReference
  2
*U3
 10
309.8783365975068
 20
151.528354643432
 30
0.0
 50
60.0
  0
INSERT
  5
4CC52
330
4CC4D
100
AcDbEntity
  8
0
  6
ByBlock
347
3E
 62
     0
440
 16777216
370
    -2
380
     1
100
AcDbBlockReference
  2
*U3
 10
309.7763446045457
 20
134.8783546434303
 30
0.0
 50
120.0
  0
INSERT
  5
4CC53
330
4CC4D
100
AcDbEntity
  8
0
  6
ByBlock
347
3E
 62
     0
440
 16777216
370
    -2
380
     1
100
AcDbBlockReference
  2
*U3
 10
324.1446715810774
 20
126.4650269865425
 30
0.0
 50
180.0
  0
INSERT
  5
4CC54
330
4CC4D
100
AcDbEntity
  8
0
  6
ByBlock
347
3E
 62
     0
440
 16777216
370
    -2
380
     1
100
AcDbBlockReference
  2
*U3
 10
338.6149905505704
 20
134.7016993296563
 30
0.0
 41
1.0
 42
1.0
 43
1.0
 50
240.0
  0
INSERT
  5
4CC55
330
4CC4D
100
AcDbEntity
  8
0
  6
ByBlock
347
3E
 62
     0
440
 16777216
370
    -2
380
     1
100
AcDbBlockReference
  2
*U3
 10
338.7169825435316
 20
151.351699329658
 30
0.0
 41
0.9999999999999998
 42
0.9999999999999998
 43
0.9999999999999998
 50
300.0
  0
ENDBLK
  5
4CC56
330
4CC4D
100
AcDbEntity
  8
0
100
AcDbBlockEnd
  0
ENDSEC
  0
SECTION
  2
ENTITIES
  0
LWPOLYLINE
  5
3D824
330
2
100
AcDbEntity
  8
0
 62
     0
100
AcDbPolyline
 90
        4
 70
     1
 43
0.0
 10
0.5
 20
0.5
 10
0.5
 20
161.7244210126602
 10
231.535
 20
161.7244210126602
 10
231.535
 20
0.5
  0
LINE
  5
3D825
330
2
100
AcDbEntity
  8
0
  6
Continuous
 62
     7
100
AcDbLine
 10
173.7762499999999
 20
-2.317499999999999
 30
0.0
 11
173.7762499999999
 21
0.5
 31
0.0
  0
LINE
  5
3D826
330
2
100
AcDbEntity
  8
0
  6
Continuous
 62
     7
100
AcDbLine
 10
170.9587499999999
 20
0.5
 30
0.0
 11
170.9587499999999
 21
23.17218420490535
 31
0.0
  0
LINE
  5
3D827
330
2
100
AcDbEntity
  8
0
  6
Continuous
 62
     7
100
AcDbLine
 10
58.25875000000002
 20
-2.317499999999999
 30
0.0
 11
58.25875000000002
 21
0.5
 31
0.0
  0
LINE
  5
3D828
330
2
100
AcDbEntity
  8
0
  6
Continuous
 62
     7
100
AcDbLine
 10
173.7762499999999
 20
164.5419210126602
 30
0.0
 11
173.7762499999999
 21
161.7244210126602
 31
0.0
  0
LINE
  5
3D829
330
2
100
AcDbEntity
  8
0
  6
Continuous
 62
     7
100
AcDbLine
 10
58.25875000000002
 20
164.5419210126602
 30
0.0
 11
58.25875000000002
 21
161.7244210126602
 31
0.0
  0
LINE
  5
3D82A
330
2
100
AcDbEntity
  8
0
  6
Continuous
 62
     7
100
AcDbLine
 10
-2.317499999999995
 20
40.80610525316505
 30
0.0
 11
0.5
 21
40.80610525316505
 31
0.0
  0
LINE
  5
3D82B
330
2
100
AcDbEntity
  8
0
  6
Continuous
 62
     7
100
AcDbLine
 10
-2.317499999999995
 20
121.4183157594951
 30
0.0
 11
0.5
 21
121.4183157594951
 31
0.0
  0
LINE
  5
3D82C
330
2
100
AcDbEntity
  8
0
  6
Continuous
 62
     7
100
AcDbLine
 10
234.3525000000001
 20
40.80610525316505
 30
0.0
 11
231.535
 21
40.80610525316505
 31
0.0
  0
LINE
  5
3D82D
330
2
100
AcDbEntity
  8
0
  6
Continuous
 62
     7
100
AcDbLine
 10
234.3525000000001
 20
121.4183157594951
 30
0.0
 11
231.535
 21
121.4183157594951
 31
0.0
  0
LINE
  5
3D82E
330
2
100
AcDbEntity
  8
0
  6
Continuous
 62
     7
100
AcDbLine
 10
170.9587499999999
 20
15.61478946993689
 30
0.0
 11
231.535
 21
15.61478946993689
 31
0.0
  0
LINE
  5
3D82F
330
2
100
AcDbEntity
  8
0
  6
Continuous
 62
     7
100
AcDbLine
 10
170.9587499999999
 20
23.17218420490535
 30
0.0
 11
231.535
 21
23.17218420490534
 31
0.0
  0
LINE
  5
3D830
330
2
100
AcDbEntity
  8
0
  6
Continuous
 62
     7
100
AcDbLine
 10
170.9587499999999
 20
8.057394734968447
 30
0.0
 11
231.535
 21
8.057394734968447
 31
0.0
  0
LINE
  5
3D831
330
2
100
AcDbEntity
  8
0
  6
Continuous
 62
     7
100
AcDbLine
 10
231.535
 20
81.11221050633011
 30
0.0
 11
234.3525000000001
 21
81.11221050633011
 31
0.0
  0
LINE
  5
3D832
330
2
100
AcDbEntity
  8
0
  6
Continuous
 62
     7
100
AcDbLine
 10
232.94375
 20
80.1542605063301
 30
0.0
 11
232.94375
 21
82.07016050633011
 31
0.0
  0
LINE
  5
3D833
330
2
100
AcDbEntity
  8
0
  6
Continuous
 62
     7
100
AcDbLine
 10
232.94375
 20
80.1542605063301
 30
0.0
 11
231.535
 21
81.11221050633011
 31
0.0
  0
LINE
  5
3D834
330
2
100
AcDbEntity
  8
0
  6
Continuous
 62
     7
100
AcDbLine
 10
231.535
 20
81.11221050633011
 30
0.0
 11
232.94375
 21
82.07016050633011
 31
0.0
  0
LINE
  5
3D835
330
2
100
AcDbEntity
  8
0
  6
Continuous
 62
     7
100
AcDbLine
 10
0.5
 20
81.11221050633011
 30
0.0
 11
-2.317499999999995
 21
81.11221050633011
 31
0.0
  0
LINE
  5
3D836
330
2
100
AcDbEntity
  8
0
  6
Continuous
 62
     7
100
AcDbLine
 10
-0.9087500000000545
 20
80.1542605063301
 30
0.0
 11
-0.9087500000000545
 21
82.07016050633011
 31
0.0
  0
LINE
  5
3D837
330
2
100
AcDbEntity
  8
0
  6
Continuous
 62
     7
100
AcDbLine
 10
-0.9087500000000545
 20
80.1542605063301
 30
0.0
 11
0.5
 21
81.11221050633011
 31
0.0
  0
LINE
  5
3D838
330
2
100
AcDbEntity
  8
0
  6
Continuous
 62
     7
100
AcDbLine
 10
0.5
 20
81.11221050633011
 30
0.0
 11
-0.9087500000000545
 21
82.07016050633011
 31
0.0
  0
LINE
  5
3D839
330
2
100
AcDbEntity
  8
0
  6
Continuous
 62
     7
100
AcDbLine
 10
116.0175
 20
161.7244210126602
 30
0.0
 11
116.0175
 21
164.5419210126602
 31
0.0
  0
LINE
  5
3D83A
330
2
100
AcDbEntity
  8
0
  6
Continuous
 62
     7
100
AcDbLine
 10
115.0595499999999
 20
163.1331710126602
 30
0.0
 11
116.97545
 21
163.1331710126602
 31
0.0
  0
LINE
  5
3D83B
330
2
100
AcDbEntity
  8
0
  6
Continuous
 62
     7
100
AcDbLine
 10
115.0595499999999
 20
163.1331710126602
 30
0.0
 11
116.0175
 21
161.7244210126602
 31
0.0
  0
LINE
  5
3D83C
330
2
100
AcDbEntity
  8
0
  6
Continuous
 62
     7
100
AcDbLine
 10
116.0175
 20
161.7244210126602
 30
0.0
 11
116.97545
 21
163.1331710126602
 31
0.0
  0
LINE
  5
3D83D
330
2
100
AcDbEntity
  8
0
  6
Continuous
 62
     7
100
AcDbLine
 10
116.0175
 20
0.5
 30
0.0
 11
116.0175
 21
-2.317499999999999
 31
0.0
  0
LINE
  5
3D83E
330
2
100
AcDbEntity
  8
0
  6
Continuous
 62
     7
100
AcDbLine
 10
115.0595499999999
 20
-0.9087500000000012
 30
0.0
 11
116.97545
 21
-0.9087500000000012
 31
0.0
  0
LINE
  5
3D83F
330
2
100
AcDbEntity
  8
0
  6
Continuous
 62
     7
100
AcDbLine
 10
115.0595499999999
 20
-0.9087500000000012
 30
0.0
 11
116.0175
 21
0.5
 31
0.0
  0
LINE
  5
3D840
330
2
100
AcDbEntity
  8
0
  6
Continuous
 62
     7
100
AcDbLine
 10
116.0175
 20
0.5
 30
0.0
 11
116.97545
 21
-0.9087500000000012
 31
0.0
  0
TEXT
  5
3D841
330
2
100
AcDbEntity
  8
0
 62
     2
100
AcDbText
 10
28.78936587675781
 20
-1.782846177046135
 30
0.0
 40
1.577799999999999
  1
4
  7
굴림
100
AcDbText
  0
TEXT
  5
3D842
330
2
100
AcDbEntity
  8
0
 62
     2
100
AcDbText
 10
86.60166589423278
 20
-1.782846177046135
 30
0.0
 40
1.577799999999999
  1
3
  7
굴림
100
AcDbText
  0
TEXT
  5
3D843
330
2
100
AcDbEntity
  8
0
 62
     2
100
AcDbText
 10
144.2857027075057
 20
-1.782846177046135
 30
0.0
 40
1.577799999999999
  1
2
  7
굴림
100
AcDbText
  0
TEXT
  5
3D844
330
2
100
AcDbEntity
  8
0
 62
     2
100
AcDbText
 10
202.2206105089068
 20
-1.782846177046135
 30
0.0
 40
1.577799999999999
  1
1
  7
굴림
100
AcDbText
  0
TEXT
  5
3D845
330
2
100
AcDbEntity
  8
0
 62
     2
100
AcDbText
 10
28.78936587675781
 20
162.6227433851264
 30
0.0
 40
1.577799999999999
  1
4
  7
굴림
100
AcDbText
  0
TEXT
  5
3D846
330
2
100
AcDbEntity
  8
0
 62
     2
100
AcDbText
 10
86.60166589423278
 20
162.6227433851264
 30
0.0
 40
1.577799999999999
  1
3
  7
굴림
100
AcDbText
  0
TEXT
  5
3D847
330
2
100
AcDbEntity
  8
0
 62
     2
100
AcDbText
 10
144.2857027075057
 20
162.6227433851264
 30
0.0
 40
1.577799999999999
  1
2
  7
굴림
100
AcDbText
  0
TEXT
  5
3D848
330
2
100
AcDbEntity
  8
0
 62
     2
100
AcDbText
 10
202.2206105089068
 20
162.6227433851264
 30
0.0
 40
1.577799999999999
  1
1
  7
굴림
100
AcDbText
  0
TEXT
  5
3D849
330
2
100
AcDbEntity
  8
0
 62
     2
100
AcDbText
 10
-1.777771666261116
 20
20.12768597797661
 30
0.0
 40
1.577799999999999
  1
A
  7
굴림
100
AcDbText
  0
TEXT
  5
3D84A
330
2
100
AcDbEntity
  8
0
 62
     2
100
AcDbText
 10
-1.777771666261116
 20
60.09941077802205
 30
0.0
 40
1.577799999999999
  1
B
  7
굴림
100
AcDbText
  0
TEXT
  5
3D84B
330
2
100
AcDbEntity
  8
0
 62
     2
100
AcDbText
 10
-1.777771666261116
 20
100.4525583002817
 30
0.0
 40
1.577799999999999
  1
C
  7
굴림
100
AcDbText
  0
TEXT
  5
3D84C
330
2
100
AcDbEntity
  8
0
 62
     2
100
AcDbText
 10
-1.777771666261116
 20
141.054192175402
 30
0.0
 40
1.577799999999999
  1
D
  7
굴림
100
AcDbText
  0
TEXT
  5
3D84D
330
2
100
AcDbEntity
  8
0
 62
     2
100
AcDbText
 10
232.3790232576507
 20
20.12768597797661
 30
0.0
 40
1.577799999999999
  1
A
  7
굴림
100
AcDbText
  0
TEXT
  5
3D84E
330
2
100
AcDbEntity
  8
0
 62
     2
100
AcDbText
 10
232.3790232576507
 20
60.09941077802205
 30
0.0
 40
1.577799999999999
  1
B
  7
굴림
100
AcDbText
  0
TEXT
  5
3D84F
330
2
100
AcDbEntity
  8
0
 62
     2
100
AcDbText
 10
232.3790232576507
 20
100.4525583002817
 30
0.0
 40
1.577799999999999
  1
C
  7
굴림
100
AcDbText
  0
TEXT
  5
3D850
330
2
100
AcDbEntity
  8
0
 62
     2
100
AcDbText
 10
232.3790232576507
 20
141.054192175402
 30
0.0
 40
1.577799999999999
  1
D
  7
굴림
100
AcDbText
  0
HATCH
  5
3D851
330
2
100
AcDbEntity
  8
0
  6
Continuous
 62
     0
100
AcDbHatch
 10
0.0
 20
0.0
 30
0.0
210
0.0
220
0.0
230
1.0
  2
SOLID
 70
     1
 71
     1
 91
        1
 92
        5
 93
       13
 72
     4
 94
        3
 73
     0
 74
     0
 95
        8
 96
        4
 40
1.0
 40
1.0
 40
1.0
 40
1.0
 40
2.0
 40
2.0
 40
2.0
 40
2.0
 10
189.014730617529
 20
19.25376886910951
 10
189.014730617529
 20
19.25376886910951
 10
188.3706084452379
 20
16.30407806181323
 10
188.3706084452379
 20
16.30407806181323
 97
        0
 72
     4
 94
        3
 73
     0
 74
     0
 95
        8
 96
        4
 40
0.0
 40
0.0
 40
0.0
 40
0.0
 40
1.0
 40
1.0
 40
1.0
 40
1.0
 10
188.3706084452379
 20
16.30407806181323
 10
188.3706084452379
 20
16.30407806181323
 10
189.7873924134504
 20
16.30407806181323
 10
189.7873924134504
 20
16.30407806181323
 97
        0
 72
     4
 94
        3
 73
     0
 74
     0
 95
        8
 96
        4
 40
12.0
 40
12.0
 40
12.0
 40
12.0
 40
13.0
 40
13.0
 40
13.0
 40
13.0
 10
189.7873924134504
 20
16.30407806181323
 10
189.7873924134504
 20
16.30407806181323
 10
190.528250333593
 20
20.85086087794934
 10
190.528250333593
 20
20.85086087794934
 97
        0
 72
     4
 94
        3
 73
     0
 74
     0
 95
        8
 96
        4
 40
11.0
 40
11.0
 40
11.0
 40
11.0
 40
12.0
 40
12.0
 40
12.0
 40
12.0
 10
190.528250333593
 20
20.85086087794934
 10
190.528250333593
 20
20.85086087794934
 10
189.0016642962152
 20
20.85086087794934
 10
189.0016642962152
 20
20.85086087794934
 97
        0
 72
     4
 94
        3
 73
     0
 74
     0
 95
        8
 96
        4
 40
10.0
 40
10.0
 40
10.0
 40
10.0
 40
11.0
 40
11.0
 40
11.0
 40
11.0
 10
189.0016642962152
 20
20.85086087794934
 10
189.0016642962152
 20
20.85086087794934
 10
187.4302080617452
 20
18.35216771506252
 10
187.4302080617452
 20
18.35216771506252
 97
        0
 72
     4
 94
        3
 73
     0
 74
     0
 95
        8
 96
        4
 40
9.0
 40
9.0
 40
9.0
 40
9.0
 40
10.0
 40
10.0
 40
10.0
 40
10.0
 10
187.4302080617452
 20
18.35216771506252
 10
187.4302080617452
 20
18.35216771506252
 10
187.1535424591758
 20
20.85086087794934
 10
187.1535424591758
 20
20.85086087794934
 97
        0
 72
     4
 94
        3
 73
     0
 74
     0
 95
        8
 96
        4
 40
8.0
 40
8.0
 40
8.0
 40
8.0
 40
9.0
 40
9.0
 40
9.0
 40
9.0
 10
187.1535424591758
 20
20.85086087794934
 10
187.1535424591758
 20
20.85086087794934
 10
185.6526892920154
 20
20.85086087794934
 10
185.6526892920154
 20
20.85086087794934
 97
        0
 72
     4
 94
        3
 73
     0
 74
     0
 95
        8
 96
        4
 40
7.0
 40
7.0
 40
7.0
 40
7.0
 40
8.0
 40
8.0
 40
8.0
 40
8.0
 10
185.6526892920154
 20
20.85086087794934
 10
185.6526892920154
 20
20.85086087794934
 10
183.9976635228218
 20
16.30407806181323
 10
183.9976635228218
 20
16.30407806181323
 97
        0
 72
     4
 94
        3
 73
     0
 74
     0
 95
        8
 96
        4
 40
6.0
 40
6.0
 40
6.0
 40
6.0
 40
7.0
 40
7.0
 40
7.0
 40
7.0
 10
183.9976635228218
 20
16.30407806181323
 10
183.9976635228218
 20
16.30407806181323
 10
185.3822439157376
 20
16.30407806181323
 10
185.3822439157376
 20
16.30407806181323
 97
        0
 72
     4
 94
        3
 73
     0
 74
     0
 95
        8
 96
        4
 40
5.0
 40
5.0
 40
5.0
 40
5.0
 40
6.0
 40
6.0
 40
6.0
 40
6.0
 10
185.3822439157376
 20
16.30407806181323
 10
185.3822439157376
 20
16.30407806181323
 10
186.3161986040878
 20
19.31807615603367
 10
186.3161986040878
 20
19.31807615603367
 97
        0
 72
     4
 94
        3
 73
     0
 74
     0
 95
        8
 96
        4
 40
4.0
 40
4.0
 40
4.0
 40
4.0
 40
5.0
 40
5.0
 40
5.0
 40
5.0
 10
186.3161986040878
 20
19.31807615603367
 10
186.3161986040878
 20
19.31807615603367
 10
186.6575219048462
 20
16.30407806181323
 10
186.6575219048462
 20
16.30407806181323
 97
        0
 72
     4
 94
        3
 73
     0
 74
     0
 95
        8
 96
        4
 40
3.0
 40
3.0
 40
3.0
 40
3.0
 40
4.0
 40
4.0
 40
4.0
 40
4.0
 10
186.6575219048462
 20
16.30407806181323
 10
186.6575219048462
 20
16.30407806181323
 10
187.1083968096594
 20
16.30407806181323
 10
187.1083968096594
 20
16.30407806181323
 97
        0
 72
     4
 94
        3
 73
     0
 74
     0
 95
        8
 96
        4
 40
2.0
 40
2.0
 40
2.0
 40
2.0
 40
3.0
 40
3.0
 40
3.0
 40
3.0
 10
187.1083968096594
 20
16.30407806181323
 10
187.1083968096594
 20
16.30407806181323
 10
189.014730617529
 20
19.25376886910951
 10
189.014730617529
 20
19.25376886910951
 97
        0
 97
       13
330
3D85E
330
3D85D
330
3D85C
330
3D85B
330
3D85A
330
3D859
330
3D858
330
3D857
330
3D856
330
3D855
330
3D854
330
3D853
330
3D852
 75
     1
 76
     1
 47
0.0269459378258844
 98
        1
 10
189.0969073776867
 20
17.84991882150356
450
        0
451
        0
460
0.0
461
0.0
452
        0
462
1.0
453
        2
463
0.0
 63
     5
421
      255
463
1.0
 63
     2
421
 16776960
470
LINEAR
1001
GRADIENTCOLOR1ACI
1070
     5
1001
GRADIENTCOLOR2ACI
1070
     2
1001
ACAD
1010
0.0
1020
0.0
1030
0.0
  0
SPLINE
  5
3D852
102
{ACAD_REACTORS
330
3D851
102
}
330
2
100
AcDbEntity
  8
Layer 1
100
AcDbSpline
210
0.0
220
0.0
230
1.0
 70
    24
 71
     3
 72
     8
 73
     4
 74
     0
 42
0.000000001
 43
0.0000000001
 40
0.0
 40
0.0
 40
0.0
 40
0.0
 40
1.0
 40
1.0
 40
1.0
 40
1.0
 10
189.7873924134504
 20
16.30407806181323
 30
0.0
 10
189.7873924134504
 20
16.30407806181323
 30
0.0
 10
188.3706084452379
 20
16.30407806181323
 30
0.0
 10
188.3706084452379
 20
16.30407806181323
 30
0.0
  0
SPLINE
  5
3D853
102
{ACAD_REACTORS
330
3D851
102
}
330
2
100
AcDbEntity
  8
Layer 1
100
AcDbSpline
210
0.0
220
0.0
230
1.0
 70
    24
 71
     3
 72
     8
 73
     4
 74
     0
 42
0.000000001
 43
0.0000000001
 40
1.0
 40
1.0
 40
1.0
 40
1.0
 40
2.0
 40
2.0
 40
2.0
 40
2.0
 10
188.3706084452379
 20
16.30407806181323
 30
0.0
 10
188.3706084452379
 20
16.30407806181323
 30
0.0
 10
189.014730617529
 20
19.25376886910951
 30
0.0
 10
189.014730617529
 20
19.25376886910951
 30
0.0
  0
SPLINE
  5
3D854
102
{ACAD_REACTORS
330
3D851
102
}
330
2
100
AcDbEntity
  8
Layer 1
100
AcDbSpline
210
0.0
220
0.0
230
1.0
 70
    24
 71
     3
 72
     8
 73
     4
 74
     0
 42
0.000000001
 43
0.0000000001
 40
2.0
 40
2.0
 40
2.0
 40
2.0
 40
3.0
 40
3.0
 40
3.0
 40
3.0
 10
189.014730617529
 20
19.25376886910951
 30
0.0
 10
189.014730617529
 20
19.25376886910951
 30
0.0
 10
187.1083968096594
 20
16.30407806181323
 30
0.0
 10
187.1083968096594
 20
16.30407806181323
 30
0.0
  0
SPLINE
  5
3D855
102
{ACAD_REACTORS
330
3D851
102
}
330
2
100
AcDbEntity
  8
Layer 1
100
AcDbSpline
210
0.0
220
0.0
230
1.0
 70
    24
 71
     3
 72
     8
 73
     4
 74
     0
 42
0.000000001
 43
0.0000000001
 40
3.0
 40
3.0
 40
3.0
 40
3.0
 40
4.0
 40
4.0
 40
4.0
 40
4.0
 10
187.1083968096594
 20
16.30407806181323
 30
0.0
 10
187.1083968096594
 20
16.30407806181323
 30
0.0
 10
186.6575219048462
 20
16.30407806181323
 30
0.0
 10
186.6575219048462
 20
16.30407806181323
 30
0.0
  0
SPLINE
  5
3D856
102
{ACAD_REACTORS
330
3D851
102
}
330
2
100
AcDbEntity
  8
Layer 1
100
AcDbSpline
210
0.0
220
0.0
230
1.0
 70
    24
 71
     3
 72
     8
 73
     4
 74
     0
 42
0.000000001
 43
0.0000000001
 40
4.0
 40
4.0
 40
4.0
 40
4.0
 40
5.0
 40
5.0
 40
5.0
 40
5.0
 10
186.6575219048462
 20
16.30407806181323
 30
0.0
 10
186.6575219048462
 20
16.30407806181323
 30
0.0
 10
186.3161986040878
 20
19.31807615603367
 30
0.0
 10
186.3161986040878
 20
19.31807615603367
 30
0.0
  0
SPLINE
  5
3D857
102
{ACAD_REACTORS
330
3D851
102
}
330
2
100
AcDbEntity
  8
Layer 1
100
AcDbSpline
210
0.0
220
0.0
230
1.0
 70
    24
 71
     3
 72
     8
 73
     4
 74
     0
 42
0.000000001
 43
0.0000000001
 40
5.0
 40
5.0
 40
5.0
 40
5.0
 40
6.0
 40
6.0
 40
6.0
 40
6.0
 10
186.3161986040878
 20
19.31807615603367
 30
0.0
 10
186.3161986040878
 20
19.31807615603367
 30
0.0
 10
185.3822439157376
 20
16.30407806181323
 30
0.0
 10
185.3822439157376
 20
16.30407806181323
 30
0.0
  0
SPLINE
  5
3D858
102
{ACAD_REACTORS
330
3D851
102
}
330
2
100
AcDbEntity
  8
Layer 1
100
AcDbSpline
210
0.0
220
0.0
230
1.0
 70
    24
 71
     3
 72
     8
 73
     4
 74
     0
 42
0.000000001
 43
0.0000000001
 40
6.0
 40
6.0
 40
6.0
 40
6.0
 40
7.0
 40
7.0
 40
7.0
 40
7.0
 10
185.3822439157376
 20
16.30407806181323
 30
0.0
 10
185.3822439157376
 20
16.30407806181323
 30
0.0
 10
183.9976635228218
 20
16.30407806181323
 30
0.0
 10
183.9976635228218
 20
16.30407806181323
 30
0.0
  0
SPLINE
  5
3D859
102
{ACAD_REACTORS
330
3D851
102
}
330
2
100
AcDbEntity
  8
Layer 1
100
AcDbSpline
210
0.0
220
0.0
230
1.0
 70
    24
 71
     3
 72
     8
 73
     4
 74
     0
 42
0.000000001
 43
0.0000000001
 40
7.0
 40
7.0
 40
7.0
 40
7.0
 40
8.0
 40
8.0
 40
8.0
 40
8.0
 10
183.9976635228218
 20
16.30407806181323
 30
0.0
 10
183.9976635228218
 20
16.30407806181323
 30
0.0
 10
185.6526892920154
 20
20.85086087794934
 30
0.0
 10
185.6526892920154
 20
20.85086087794934
 30
0.0
  0
SPLINE
  5
3D85A
102
{ACAD_REACTORS
330
3D851
102
}
330
2
100
AcDbEntity
  8
Layer 1
100
AcDbSpline
210
0.0
220
0.0
230
1.0
 70
    24
 71
     3
 72
     8
 73
     4
 74
     0
 42
0.000000001
 43
0.0000000001
 40
8.0
 40
8.0
 40
8.0
 40
8.0
 40
9.0
 40
9.0
 40
9.0
 40
9.0
 10
185.6526892920154
 20
20.85086087794934
 30
0.0
 10
185.6526892920154
 20
20.85086087794934
 30
0.0
 10
187.1535424591758
 20
20.85086087794934
 30
0.0
 10
187.1535424591758
 20
20.85086087794934
 30
0.0
  0
SPLINE
  5
3D85B
102
{ACAD_REACTORS
330
3D851
102
}
330
2
100
AcDbEntity
  8
Layer 1
100
AcDbSpline
210
0.0
220
0.0
230
1.0
 70
    24
 71
     3
 72
     8
 73
     4
 74
     0
 42
0.000000001
 43
0.0000000001
 40
9.0
 40
9.0
 40
9.0
 40
9.0
 40
10.0
 40
10.0
 40
10.0
 40
10.0
 10
187.1535424591758
 20
20.85086087794934
 30
0.0
 10
187.1535424591758
 20
20.85086087794934
 30
0.0
 10
187.4302080617452
 20
18.35216771506252
 30
0.0
 10
187.4302080617452
 20
18.35216771506252
 30
0.0
  0
SPLINE
  5
3D85C
102
{ACAD_REACTORS
330
3D851
102
}
330
2
100
AcDbEntity
  8
Layer 1
100
AcDbSpline
210
0.0
220
0.0
230
1.0
 70
    24
 71
     3
 72
     8
 73
     4
 74
     0
 42
0.000000001
 43
0.0000000001
 40
10.0
 40
10.0
 40
10.0
 40
10.0
 40
11.0
 40
11.0
 40
11.0
 40
11.0
 10
187.4302080617452
 20
18.35216771506252
 30
0.0
 10
187.4302080617452
 20
18.35216771506252
 30
0.0
 10
189.0016642962152
 20
20.85086087794934
 30
0.0
 10
189.0016642962152
 20
20.85086087794934
 30
0.0
  0
SPLINE
  5
3D85D
102
{ACAD_REACTORS
330
3D851
102
}
330
2
100
AcDbEntity
  8
Layer 1
100
AcDbSpline
210
0.0
220
0.0
230
1.0
 70
    24
 71
     3
 72
     8
 73
     4
 74
     0
 42
0.000000001
 43
0.0000000001
 40
11.0
 40
11.0
 40
11.0
 40
11.0
 40
12.0
 40
12.0
 40
12.0
 40
12.0
 10
189.0016642962152
 20
20.85086087794934
 30
0.0
 10
189.0016642962152
 20
20.85086087794934
 30
0.0
 10
190.528250333593
 20
20.85086087794934
 30
0.0
 10
190.528250333593
 20
20.85086087794934
 30
0.0
  0
SPLINE
  5
3D85E
102
{ACAD_REACTORS
330
3D851
102
}
330
2
100
AcDbEntity
  8
Layer 1
100
AcDbSpline
210
0.0
220
0.0
230
1.0
 70
    24
 71
     3
 72
     8
 73
     4
 74
     0
 42
0.000000001
 43
0.0000000001
 40
12.0
 40
12.0
 40
12.0
 40
12.0
 40
13.0
 40
13.0
 40
13.0
 40
13.0
 10
190.528250333593
 20
20.85086087794934
 30
0.0
 10
190.528250333593
 20
20.85086087794934
 30
0.0
 10
189.7873924134504
 20
16.30407806181323
 30
0.0
 10
189.7873924134504
 20
16.30407806181323
 30
0.0
  0
HATCH
  5
3D85F
330
2
100
AcDbEntity
  8
0
  6
Continuous
 62
     0
100
AcDbHatch
 10
0.0
 20
0.0
 30
0.0
210
0.0
220
0.0
230
1.0
  2
SOLID
 70
     1
 71
     0
 91
        1
 92
        5
 93
        1
 72
     4
 94
        3
 73
     0
 74
     0
 95
       41
 96
       37
 40
0.0
 40
0.0
 40
0.0
 40
0.0
 40
1.0
 40
1.0
 40
1.0
 40
2.0
 40
2.0
 40
2.0
 40
3.0
 40
3.0
 40
3.0
 40
4.0
 40
4.0
 40
4.0
 40
5.0
 40
5.0
 40
5.0
 40
6.0
 40
6.0
 40
6.0
 40
7.0
 40
7.0
 40
7.0
 40
8.0
 40
8.0
 40
8.0
 40
9.0
 40
9.0
 40
9.0
 40
10.0
 40
10.0
 40
10.0
 40
11.0
 40
11.0
 40
11.0
 40
12.0
 40
12.0
 40
12.0
 40
12.0
 10
191.403643894795
 20
16.30407806181323
 10
191.403643894795
 20
16.30407806181323
 10
189.9288984247707
 20
16.30407806181323
 10
189.9288984247707
 20
16.30407806181323
 10
189.9288984247707
 20
16.30407806181323
 10
192.8784900780259
 20
20.85720386319997
 10
192.8784900780259
 20
20.85720386319997
 10
192.8784900780259
 20
20.85720386319997
 10
194.3984805346302
 20
20.85720386319997
 10
194.3984805346302
 20
20.85720386319997
 10
194.3984805346302
 20
20.85720386319997
 10
194.7399279258143
 20
16.30407806181323
 10
194.7399279258143
 20
16.30407806181323
 10
194.7399279258143
 20
16.30407806181323
 10
193.3680391381002
 20
16.30407806181323
 10
193.3680391381002
 20
16.30407806181323
 10
193.3680391381002
 20
16.30407806181323
 10
193.3228941235426
 20
17.0383403627842
 10
193.3228941235426
 20
17.0383403627842
 10
193.3228941235426
 20
17.0383403627842
 10
192.3284296495665
 20
17.0383403627842
 10
192.3284296495665
 20
17.0383403627842
 10
192.3284296495665
 20
17.0383403627842
 10
192.8221267346122
 20
17.98483669732943
 10
192.8221267346122
 20
17.98483669732943
 10
192.8221267346122
 20
17.98483669732943
 10
193.2778740260145
 20
17.98483669732943
 10
193.2778740260145
 20
17.98483669732943
 10
193.2778740260145
 20
17.98483669732943
 10
193.2198125905786
 20
19.31807615603367
 10
193.2198125905786
 20
19.31807615603367
 10
193.2198125905786
 20
19.31807615603367
 10
191.4109647752494
 20
16.31432125825415
 10
191.4109647752494
 20
16.31432125825415
 10
191.4109647752494
 20
16.31432125825415
 10
191.403643894795
 20
16.30407806181323
 10
191.403643894795
 20
16.30407806181323
 97
        0
 97
        0
 75
     1
 76
     1
 47
0.0269459378258844
 98
        1
 10
194.1750759067004
 20
18.1838382318563
450
        0
451
        0
460
0.0
461
0.0
452
        0
462
1.0
453
        2
463
0.0
 63
     5
421
      255
463
1.0
 63
     2
421
 16776960
470
LINEAR
1001
GRADIENTCOLOR1ACI
1070
     5
1001
GRADIENTCOLOR2ACI
1070
     2
1001
ACAD
1010
0.0
1020
0.0
1030
0.0
  0
SPLINE
  5
3D860
330
2
100
AcDbEntity
  8
Layer 1
100
AcDbSpline
210
0.0
220
0.0
230
1.0
 70
    11
 71
     3
 72
    41
 73
    37
 74
     0
 42
0.000000001
 43
0.0000000001
 40
0.0
 40
0.0
 40
0.0
 40
0.0
 40
1.0
 40
1.0
 40
1.0
 40
2.0
 40
2.0
 40
2.0
 40
3.0
 40
3.0
 40
3.0
 40
4.0
 40
4.0
 40
4.0
 40
5.0
 40
5.0
 40
5.0
 40
6.0
 40
6.0
 40
6.0
 40
7.0
 40
7.0
 40
7.0
 40
8.0
 40
8.0
 40
8.0
 40
9.0
 40
9.0
 40
9.0
 40
10.0
 40
10.0
 40
10.0
 40
11.0
 40
11.0
 40
11.0
 40
12.0
 40
12.0
 40
12.0
 40
12.0
 10
191.403643894795
 20
16.30407806181323
 30
0.0
 10
191.403643894795
 20
16.30407806181323
 30
0.0
 10
189.9288984247707
 20
16.30407806181323
 30
0.0
 10
189.9288984247707
 20
16.30407806181323
 30
0.0
 10
189.9288984247707
 20
16.30407806181323
 30
0.0
 10
192.8784900780259
 20
20.85720386319997
 30
0.0
 10
192.8784900780259
 20
20.85720386319997
 30
0.0
 10
192.8784900780259
 20
20.85720386319997
 30
0.0
 10
194.3984805346302
 20
20.85720386319997
 30
0.0
 10
194.3984805346302
 20
20.85720386319997
 30
0.0
 10
194.3984805346302
 20
20.85720386319997
 30
0.0
 10
194.7399279258143
 20
16.30407806181323
 30
0.0
 10
194.7399279258143
 20
16.30407806181323
 30
0.0
 10
194.7399279258143
 20
16.30407806181323
 30
0.0
 10
193.3680391381002
 20
16.30407806181323
 30
0.0
 10
193.3680391381002
 20
16.30407806181323
 30
0.0
 10
193.3680391381002
 20
16.30407806181323
 30
0.0
 10
193.3228941235426
 20
17.0383403627842
 30
0.0
 10
193.3228941235426
 20
17.0383403627842
 30
0.0
 10
193.3228941235426
 20
17.0383403627842
 30
0.0
 10
192.3284296495665
 20
17.0383403627842
 30
0.0
 10
192.3284296495665
 20
17.0383403627842
 30
0.0
 10
192.3284296495665
 20
17.0383403627842
 30
0.0
 10
192.8221267346122
 20
17.98483669732943
 30
0.0
 10
192.8221267346122
 20
17.98483669732943
 30
0.0
 10
192.8221267346122
 20
17.98483669732943
 30
0.0
 10
193.2778740260145
 20
17.98483669732943
 30
0.0
 10
193.2778740260145
 20
17.98483669732943
 30
0.0
 10
193.2778740260145
 20
17.98483669732943
 30
0.0
 10
193.2198125905786
 20
19.31807615603367
 30
0.0
 10
193.2198125905786
 20
19.31807615603367
 30
0.0
 10
193.2198125905786
 20
19.31807615603367
 30
0.0
 10
191.4109647752494
 20
16.31432125825415
 30
0.0
 10
191.4109647752494
 20
16.31432125825415
 30
0.0
 10
191.4109647752494
 20
16.31432125825415
 30
0.0
 10
191.403643894795
 20
16.30407806181323
 30
0.0
 10
191.403643894795
 20
16.30407806181323
 30
0.0
  0
HATCH
  5
3D861
330
2
100
AcDbEntity
  8
0
  6
Continuous
 62
     0
100
AcDbHatch
 10
0.0
 20
0.0
 30
0.0
210
0.0
220
0.0
230
1.0
  2
SOLID
 70
     1
 71
     1
 91
        1
 92
        5
 93
        1
 72
     4
 94
        3
 73
     0
 74
     0
 95
       17
 96
       13
 40
0.0
 40
0.0
 40
0.0
 40
0.0
 40
1.0
 40
1.0
 40
1.0
 40
2.0
 40
2.0
 40
2.0
 40
3.0
 40
3.0
 40
3.0
 40
4.0
 40
4.0
 40
4.0
 40
4.0
 10
201.018833445471
 20
16.30407806181323
 10
201.018833445471
 20
16.30407806181323
 10
199.614864979287
 20
16.30407806181323
 10
199.614864979287
 20
16.30407806181323
 10
199.614864979287
 20
16.30407806181323
 10
200.8321814343675
 20
20.85086087794934
 10
200.8321814343675
 20
20.85086087794934
 10
200.8321814343675
 20
20.85086087794934
 10
202.2360489817017
 20
20.85086087794934
 10
202.2360489817017
 20
20.85086087794934
 10
202.2360489817017
 20
20.85086087794934
 10
201.018833445471
 20
16.30407806181323
 10
201.018833445471
 20
16.30407806181323
 97
        0
 97
        1
330
3D862
 75
     1
 76
     1
 47
0.0269459378258844
 98
        1
 10
200.4350977014289
 20
17.54610844144027
450
        0
451
        0
460
0.0
461
0.0
452
        0
462
1.0
453
        2
463
0.0
 63
     5
421
      255
463
1.0
 63
     2
421
 16776960
470
LINEAR
1001
GRADIENTCOLOR1ACI
1070
     5
1001
GRADIENTCOLOR2ACI
1070
     2
1001
ACAD
1010
0.0
1020
0.0
1030
0.0
  0
SPLINE
  5
3D862
102
{ACAD_REACTORS
330
3D861
102
}
330
2
100
AcDbEntity
  8
Layer 1
100
AcDbSpline
210
0.0
220
0.0
230
1.0
 70
    11
 71
     3
 72
    17
 73
    13
 74
     0
 42
0.000000001
 43
0.0000000001
 40
0.0
 40
0.0
 40
0.0
 40
0.0
 40
1.0
 40
1.0
 40
1.0
 40
2.0
 40
2.0
 40
2.0
 40
3.0
 40
3.0
 40
3.0
 40
4.0
 40
4.0
 40
4.0
 40
4.0
 10
201.018833445471
 20
16.30407806181323
 30
0.0
 10
201.018833445471
 20
16.30407806181323
 30
0.0
 10
199.614864979287
 20
16.30407806181323
 30
0.0
 10
199.614864979287
 20
16.30407806181323
 30
0.0
 10
199.614864979287
 20
16.30407806181323
 30
0.0
 10
200.8321814343675
 20
20.85086087794934
 30
0.0
 10
200.8321814343675
 20
20.85086087794934
 30
0.0
 10
200.8321814343675
 20
20.85086087794934
 30
0.0
 10
202.2360489817017
 20
20.85086087794934
 30
0.0
 10
202.2360489817017
 20
20.85086087794934
 30
0.0
 10
202.2360489817017
 20
20.85086087794934
 30
0.0
 10
201.018833445471
 20
16.30407806181323
 30
0.0
 10
201.018833445471
 20
16.30407806181323
 30
0.0
  0
HATCH
  5
3D863
330
2
100
AcDbEntity
  8
0
  6
Continuous
 62
     0
100
AcDbHatch
 10
0.0
 20
0.0
 30
0.0
210
0.0
220
0.0
230
1.0
  2
SOLID
 70
     1
 71
     1
 91
        1
 92
        5
 93
       14
 72
     4
 94
        3
 73
     0
 74
     0
 95
        8
 96
        4
 40
11.0
 40
11.0
 40
11.0
 40
11.0
 40
12.0
 40
12.0
 40
12.0
 40
12.0
 10
199.1975431054571
 20
16.24284373382131
 10
199.1975431054571
 20
16.24284373382131
 10
198.5500222507405
 20
18.17600971968497
 10
198.5500222507405
 20
18.17600971968497
 97
        0
 72
     4
 94
        3
 73
     0
 74
     0
 95
        8
 96
        4
 40
12.0
 40
12.0
 40
12.0
 40
12.0
 40
13.0
 40
13.0
 40
13.0
 40
13.0
 10
198.5500222507405
 20
18.17600971968497
 10
198.7526376730227
 20
18.23761879876616
 10
198.95367914073
 20
18.32813367853539
 10
199.1315360077124
 20
18.46401842351602
 97
        0
 72
     4
 94
        3
 73
     0
 74
     0
 95
        8
 96
        4
 40
13.0
 40
13.0
 40
13.0
 40
13.0
 40
14.0
 40
14.0
 40
14.0
 40
14.0
 10
199.1315360077124
 20
18.46401842351602
 10
199.5244750165476
 20
18.76679232026548
 10
199.7306380824752
 20
19.19840564151678
 10
199.7306380824752
 20
19.62327344316061
 97
        0
 72
     4
 94
        3
 73
     0
 74
     0
 95
        8
 96
        4
 40
0.0
 40
0.0
 40
0.0
 40
0.0
 40
1.0
 40
1.0
 40
1.0
 40
1.0
 10
199.7306380824752
 20
19.62327344316061
 10
199.7306380824752
 20
20.53771606786764
 10
198.9256227758442
 20
20.85977715401313
 10
198.223689916791
 20
20.85977715401313
 97
        0
 72
     4
 94
        3
 73
     0
 74
     0
 95
        8
 96
        4
 40
1.0
 40
1.0
 40
1.0
 40
1.0
 40
2.0
 40
2.0
 40
2.0
 40
2.0
 10
198.223689916791
 20
20.85977715401313
 10
198.223689916791
 20
20.85977715401313
 10
196.2142745251952
 20
20.85977715401313
 10
196.2142745251952
 20
20.85977715401313
 97
        0
 72
     4
 94
        3
 73
     0
 74
     0
 95
        8
 96
        4
 40
2.0
 40
2.0
 40
2.0
 40
2.0
 40
3.0
 40
3.0
 40
3.0
 40
3.0
 10
196.2142745251952
 20
20.85977715401313
 10
196.2142745251952
 20
20.85977715401313
 10
194.990611421151
 20
16.31287490593109
 10
194.990611421151
 20
16.31287490593109
 97
        0
 72
     4
 94
        3
 73
     0
 74
     0
 95
        8
 96
        4
 40
3.0
 40
3.0
 40
3.0
 40
3.0
 40
4.0
 40
4.0
 40
4.0
 40
4.0
 10
194.990611421151
 20
16.31287490593109
 10
194.990611421151
 20
16.31287490593109
 10
196.4335030485848
 20
16.31287490593109
 10
196.4335030485848
 20
16.31287490593109
 97
        0
 72
     4
 94
        3
 73
     0
 74
     0
 95
        8
 96
        4
 40
4.0
 40
4.0
 40
4.0
 40
4.0
 40
5.0
 40
5.0
 40
5.0
 40
5.0
 10
196.4335030485848
 20
16.31287490593109
 10
196.4335030485848
 20
16.31287490593109
 10
197.3798994495063
 20
19.84212807931256
 10
197.3798994495063
 20
19.84212807931256
 97
        0
 72
     4
 94
        3
 73
     0
 74
     0
 95
        8
 96
        4
 40
5.0
 40
5.0
 40
5.0
 40
5.0
 40
6.0
 40
6.0
 40
6.0
 40
6.0
 10
197.3798994495063
 20
19.84212807931256
 10
197.3798994495063
 20
19.84212807931256
 10
197.8050170852095
 20
19.84212807931256
 10
197.8050170852095
 20
19.84212807931256
 97
        0
 72
     4
 94
        3
 73
     0
 74
     0
 95
        8
 96
        4
 40
6.0
 40
6.0
 40
6.0
 40
6.0
 40
7.0
 40
7.0
 40
7.0
 40
7.0
 10
197.8050170852095
 20
19.84212807931256
 10
198.0560753316356
 20
19.84212807931256
 10
198.3138541142628
 20
19.78419156090656
 10
198.3138541142628
 20
19.4751967960747
 97
        0
 72
     4
 94
        3
 73
     0
 74
     0
 95
        8
 96
        4
 40
7.0
 40
7.0
 40
7.0
 40
7.0
 40
8.0
 40
8.0
 40
8.0
 40
8.0
 10
198.3138541142628
 20
19.4751967960747
 10
198.3138541142628
 20
19.30783295959273
 10
198.1851396067908
 20
19.03713775608743
 10
197.7600219710876
 20
19.05017909399508
 97
        0
 72
     4
 94
        3
 73
     0
 74
     0
 95
        8
 96
        4
 40
8.0
 40
8.0
 40
8.0
 40
8.0
 40
9.0
 40
9.0
 40
9.0
 40
9.0
 10
197.7600219710876
 20
19.05017909399508
 10
197.7600219710876
 20
19.05017909399508
 10
197.4877278296012
 20
18.05341614667159
 10
197.4877278296012
 20
18.05341614667159
 97
        0
 72
     4
 94
        3
 73
     0
 74
     0
 95
        8
 96
        4
 40
9.0
 40
9.0
 40
9.0
 40
9.0
 40
10.0
 40
10.0
 40
10.0
 40
10.0
 10
197.4877278296012
 20
18.05341614667159
 10
197.4877278296012
 20
18.05341614667159
 10
198.0077824079275
 20
16.24284373382131
 10
198.0077824079275
 20
16.24284373382131
 97
        0
 72
     4
 94
        3
 73
     0
 74
     0
 95
        8
 96
        4
 40
10.0
 40
10.0
 40
10.0
 40
10.0
 40
11.0
 40
11.0
 40
11.0
 40
11.0
 10
198.0077824079275
 20
16.24284373382131
 10
198.0077824079275
 20
16.24284373382131
 10
199.1975431054571
 20
16.24284373382131
 10
199.1975431054571
 20
16.24284373382131
 97
        0
 97
       13
330
3D86E
330
3D86F
330
3D870
330
3D864
330
3D865
330
3D866
330
3D867
330
3D868
330
3D869
330
3D86A
330
3D86B
330
3D86C
330
3D86D
 75
     1
 76
     1
 47
0.0269459378258844
 98
        1
 10
198.2319354928003
 20
17.94089336179978
450
        0
451
        0
460
0.0
461
0.0
452
        0
462
1.0
453
        2
463
0.0
 63
     5
421
      255
463
1.0
 63
     2
421
 16776960
470
LINEAR
1001
GRADIENTCOLOR1ACI
1070
     5
1001
GRADIENTCOLOR2ACI
1070
     2
1001
ACAD
1010
0.0
1020
0.0
1030
0.0
  0
SPLINE
  5
3D864
102
{ACAD_REACTORS
330
3D863
102
}
330
2
100
AcDbEntity
  8
Layer 1
100
AcDbSpline
210
0.0
220
0.0
230
1.0
 70
     8
 71
     3
 72
     8
 73
     4
 74
     0
 42
0.000000001
 43
0.0000000001
 40
0.0
 40
0.0
 40
0.0
 40
0.0
 40
1.0
 40
1.0
 40
1.0
 40
1.0
 10
199.7306380824752
 20
19.62327344316061
 30
0.0
 10
199.7306380824752
 20
20.53771606786764
 30
0.0
 10
198.9256227758442
 20
20.85977715401313
 30
0.0
 10
198.223689916791
 20
20.85977715401313
 30
0.0
  0
SPLINE
  5
3D865
102
{ACAD_REACTORS
330
3D863
102
}
330
2
100
AcDbEntity
  8
Layer 1
100
AcDbSpline
210
0.0
220
0.0
230
1.0
 70
    24
 71
     3
 72
     8
 73
     4
 74
     0
 42
0.000000001
 43
0.0000000001
 40
1.0
 40
1.0
 40
1.0
 40
1.0
 40
2.0
 40
2.0
 40
2.0
 40
2.0
 10
198.223689916791
 20
20.85977715401313
 30
0.0
 10
198.223689916791
 20
20.85977715401313
 30
0.0
 10
196.2142745251952
 20
20.85977715401313
 30
0.0
 10
196.2142745251952
 20
20.85977715401313
 30
0.0
  0
SPLINE
  5
3D866
102
{ACAD_REACTORS
330
3D863
102
}
330
2
100
AcDbEntity
  8
Layer 1
100
AcDbSpline
210
0.0
220
0.0
230
1.0
 70
    24
 71
     3
 72
     8
 73
     4
 74
     0
 42
0.000000001
 43
0.0000000001
 40
2.0
 40
2.0
 40
2.0
 40
2.0
 40
3.0
 40
3.0
 40
3.0
 40
3.0
 10
196.2142745251952
 20
20.85977715401313
 30
0.0
 10
196.2142745251952
 20
20.85977715401313
 30
0.0
 10
194.990611421151
 20
16.31287490593109
 30
0.0
 10
194.990611421151
 20
16.31287490593109
 30
0.0
  0
SPLINE
  5
3D867
102
{ACAD_REACTORS
330
3D863
102
}
330
2
100
AcDbEntity
  8
Layer 1
100
AcDbSpline
210
0.0
220
0.0
230
1.0
 70
    24
 71
     3
 72
     8
 73
     4
 74
     0
 42
0.000000001
 43
0.0000000001
 40
3.0
 40
3.0
 40
3.0
 40
3.0
 40
4.0
 40
4.0
 40
4.0
 40
4.0
 10
194.990611421151
 20
16.31287490593109
 30
0.0
 10
194.990611421151
 20
16.31287490593109
 30
0.0
 10
196.4335030485848
 20
16.31287490593109
 30
0.0
 10
196.4335030485848
 20
16.31287490593109
 30
0.0
  0
SPLINE
  5
3D868
102
{ACAD_REACTORS
330
3D863
102
}
330
2
100
AcDbEntity
  8
Layer 1
100
AcDbSpline
210
0.0
220
0.0
230
1.0
 70
    24
 71
     3
 72
     8
 73
     4
 74
     0
 42
0.000000001
 43
0.0000000001
 40
4.0
 40
4.0
 40
4.0
 40
4.0
 40
5.0
 40
5.0
 40
5.0
 40
5.0
 10
196.4335030485848
 20
16.31287490593109
 30
0.0
 10
196.4335030485848
 20
16.31287490593109
 30
0.0
 10
197.3798994495063
 20
19.84212807931256
 30
0.0
 10
197.3798994495063
 20
19.84212807931256
 30
0.0
  0
SPLINE
  5
3D869
102
{ACAD_REACTORS
330
3D863
102
}
330
2
100
AcDbEntity
  8
Layer 1
100
AcDbSpline
210
0.0
220
0.0
230
1.0
 70
    24
 71
     3
 72
     8
 73
     4
 74
     0
 42
0.000000001
 43
0.0000000001
 40
5.0
 40
5.0
 40
5.0
 40
5.0
 40
6.0
 40
6.0
 40
6.0
 40
6.0
 10
197.3798994495063
 20
19.84212807931256
 30
0.0
 10
197.3798994495063
 20
19.84212807931256
 30
0.0
 10
197.8050170852095
 20
19.84212807931256
 30
0.0
 10
197.8050170852095
 20
19.84212807931256
 30
0.0
  0
SPLINE
  5
3D86A
102
{ACAD_REACTORS
330
3D863
102
}
330
2
100
AcDbEntity
  8
Layer 1
100
AcDbSpline
210
0.0
220
0.0
230
1.0
 70
     8
 71
     3
 72
    11
 73
     7
 74
     0
 42
0.000000001
 43
0.0000000001
 40
6.0
 40
6.0
 40
6.0
 40
6.0
 40
7.0
 40
7.0
 40
7.0
 40
8.0
 40
8.0
 40
8.0
 40
8.0
 10
197.8050170852095
 20
19.84212807931256
 30
0.0
 10
198.0560753316356
 20
19.84212807931256
 30
0.0
 10
198.3138541142628
 20
19.78419156090656
 30
0.0
 10
198.3138541142628
 20
19.4751967960747
 30
0.0
 10
198.3138541142628
 20
19.30783295959273
 30
0.0
 10
198.1851396067908
 20
19.03713775608743
 30
0.0
 10
197.7600219710876
 20
19.05017909399508
 30
0.0
  0
SPLINE
  5
3D86B
102
{ACAD_REACTORS
330
3D863
102
}
330
2
100
AcDbEntity
  8
Layer 1
100
AcDbSpline
210
0.0
220
0.0
230
1.0
 70
    24
 71
     3
 72
     8
 73
     4
 74
     0
 42
0.000000001
 43
0.0000000001
 40
8.0
 40
8.0
 40
8.0
 40
8.0
 40
9.0
 40
9.0
 40
9.0
 40
9.0
 10
197.7600219710876
 20
19.05017909399508
 30
0.0
 10
197.7600219710876
 20
19.05017909399508
 30
0.0
 10
197.4877278296012
 20
18.05341614667159
 30
0.0
 10
197.4877278296012
 20
18.05341614667159
 30
0.0
  0
SPLINE
  5
3D86C
102
{ACAD_REACTORS
330
3D863
102
}
330
2
100
AcDbEntity
  8
Layer 1
100
AcDbSpline
210
0.0
220
0.0
230
1.0
 70
    24
 71
     3
 72
     8
 73
     4
 74
     0
 42
0.000000001
 43
0.0000000001
 40
9.0
 40
9.0
 40
9.0
 40
9.0
 40
10.0
 40
10.0
 40
10.0
 40
10.0
 10
197.4877278296012
 20
18.05341614667159
 30
0.0
 10
197.4877278296012
 20
18.05341614667159
 30
0.0
 10
198.0077824079275
 20
16.24284373382131
 30
0.0
 10
198.0077824079275
 20
16.24284373382131
 30
0.0
  0
SPLINE
  5
3D86D
102
{ACAD_REACTORS
330
3D863
102
}
330
2
100
AcDbEntity
  8
Layer 1
100
AcDbSpline
210
0.0
220
0.0
230
1.0
 70
    24
 71
     3
 72
     8
 73
     4
 74
     0
 42
0.000000001
 43
0.0000000001
 40
10.0
 40
10.0
 40
10.0
 40
10.0
 40
11.0
 40
11.0
 40
11.0
 40
11.0
 10
198.0077824079275
 20
16.24284373382131
 30
0.0
 10
198.0077824079275
 20
16.24284373382131
 30
0.0
 10
199.1975431054571
 20
16.24284373382131
 30
0.0
 10
199.1975431054571
 20
16.24284373382131
 30
0.0
  0
SPLINE
  5
3D86E
102
{ACAD_REACTORS
330
3D863
102
}
330
2
100
AcDbEntity
  8
Layer 1
100
AcDbSpline
210
0.0
220
0.0
230
1.0
 70
    24
 71
     3
 72
     8
 73
     4
 74
     0
 42
0.000000001
 43
0.0000000001
 40
11.0
 40
11.0
 40
11.0
 40
11.0
 40
12.0
 40
12.0
 40
12.0
 40
12.0
 10
199.1975431054571
 20
16.24284373382131
 30
0.0
 10
199.1975431054571
 20
16.24284373382131
 30
0.0
 10
198.5500222507405
 20
18.17600971968497
 30
0.0
 10
198.5500222507405
 20
18.17600971968497
 30
0.0
  0
SPLINE
  5
3D86F
102
{ACAD_REACTORS
330
3D863
102
}
330
2
100
AcDbEntity
  8
Layer 1
100
AcDbSpline
210
0.0
220
0.0
230
1.0
 70
     8
 71
     3
 72
     8
 73
     4
 74
     0
 42
0.000000001
 43
0.0000000001
 40
12.0
 40
12.0
 40
12.0
 40
12.0
 40
13.0
 40
13.0
 40
13.0
 40
13.0
 10
198.5500222507405
 20
18.17600971968497
 30
0.0
 10
198.7526376730227
 20
18.23761879876616
 30
0.0
 10
198.95367914073
 20
18.32813367853539
 30
0.0
 10
199.1315360077124
 20
18.46401842351602
 30
0.0
  0
SPLINE
  5
3D870
102
{ACAD_REACTORS
330
3D863
102
}
330
2
100
AcDbEntity
  8
Layer 1
100
AcDbSpline
210
0.0
220
0.0
230
1.0
 70
     8
 71
     3
 72
     8
 73
     4
 74
     0
 42
0.000000001
 43
0.0000000001
 40
13.0
 40
13.0
 40
13.0
 40
13.0
 40
14.0
 40
14.0
 40
14.0
 40
14.0
 10
199.1315360077124
 20
18.46401842351602
 30
0.0
 10
199.5244750165476
 20
18.76679232026548
 30
0.0
 10
199.7306380824752
 20
19.19840564151678
 30
0.0
 10
199.7306380824752
 20
19.62327344316061
 30
0.0
  0
LWPOLYLINE
  5
3D871
102
{ACAD_REACTORS
330
3D872
102
}
330
2
100
AcDbEntity
  8
Layer 1
 62
   103
100
AcDbPolyline
 90
        8
 70
     1
 43
0.0
 10
218.3156938375994
 20
22.33242401793743
 10
196.7102942031426
 20
22.33327345373985
 10
196.3880082663437
 20
21.27320255573034
 10
203.8753351633356
 20
21.27283061516251
 10
202.4424368982831
 20
16.30407806181323
 10
203.8465542796772
 20
16.30407806181323
 10
205.2791777272639
 20
21.27283061516251
 10
217.9918103768184
 20
21.2722032194922
  0
HATCH
  5
3D872
330
2
100
AcDbEntity
  8
0
  6
Continuous
 62
    93
100
AcDbHatch
 10
0.0
 20
0.0
 30
0.0
210
0.0
220
0.0
230
1.0
  2
SOLID
 70
     1
 71
     1
 91
        1
 92
        7
 72
     0
 73
     1
 93
        8
 10
196.7102942031426
 20
22.33327345373985
 10
196.3880082663437
 20
21.27320255573034
 10
203.8753351633356
 20
21.27283061516251
 10
202.4424368982831
 20
16.30407806181323
 10
203.8465542796772
 20
16.30407806181323
 10
205.2791777272639
 20
21.27283061516251
 10
217.9918103768184
 20
21.2722032194922
 10
218.3156938375994
 20
22.33242401793743
 97
        1
330
3D871
 75
     1
 76
     1
 47
0.0428322549537331
 98
        1
 10
206.2176429821863
 20
21.8094708050957
450
        0
451
        0
460
0.0
461
0.0
452
        0
462
1.0
453
        2
463
0.0
 63
     5
421
      255
463
1.0
 63
     2
421
 16776960
470
LINEAR
1001
GRADIENTCOLOR1ACI
1070
     5
1001
GRADIENTCOLOR2ACI
1070
     2
1001
ACAD
1010
0.0
1020
0.0
1030
0.0
  0
HATCH
  5
3D873
330
2
100
AcDbEntity
  8
0
  6
Continuous
 62
     0
100
AcDbHatch
 10
0.0
 20
0.0
 30
0.0
210
0.0
220
0.0
230
1.0
  2
SOLID
 70
     1
 71
     1
 91
        2
 92
        5
 93
        4
 72
     4
 94
        3
 73
     0
 74
     0
 95
        8
 96
        4
 40
0.0
 40
0.0
 40
0.0
 40
0.0
 40
1.0
 40
1.0
 40
1.0
 40
1.0
 10
205.3661699467935
 20
18.14770352073974
 10
205.3661699467935
 20
16.9694111457587
 10
206.1731339590891
 20
16.0663109873545
 10
207.5691817003603
 20
16.0663109873545
 97
        0
 72
     4
 94
        3
 73
     0
 74
     0
 95
        8
 96
        4
 40
3.0
 40
3.0
 40
3.0
 40
3.0
 40
4.0
 40
4.0
 40
4.0
 40
4.0
 10
207.5691817003603
 20
16.0663109873545
 10
209.4201023138254
 20
16.0663109873545
 10
210.3743185208101
 20
17.48164591802165
 10
210.3743185208101
 20
18.76252015784749
 97
        0
 72
     4
 94
        3
 73
     0
 74
     0
 95
        8
 96
        4
 40
2.0
 40
2.0
 40
2.0
 40
2.0
 40
3.0
 40
3.0
 40
3.0
 40
3.0
 10
210.3743185208101
 20
18.76252015784749
 10
210.3743185208101
 20
19.90898644971182
 10
209.5674794255443
 20
20.85682911211063
 10
208.1137200165209
 20
20.85682911211063
 97
        0
 72
     4
 94
        3
 73
     0
 74
     0
 95
        8
 96
        4
 40
1.0
 40
1.0
 40
1.0
 40
1.0
 40
2.0
 40
2.0
 40
2.0
 40
2.0
 10
208.1137200165209
 20
20.85682911211063
 10
206.3268318725145
 20
20.85682911211063
 10
205.3661699467935
 20
19.43492354567777
 10
205.3661699467935
 20
18.14770352073974
 97
        0
 97
        1
330
3D874
 92
       20
 93
        4
 72
     4
 94
        3
 73
     0
 74
     0
 95
        8
 96
        4
 40
2.0
 40
2.0
 40
2.0
 40
2.0
 40
3.0
 40
3.0
 40
3.0
 40
3.0
 10
207.6526012928387
 20
17.15508781880445
 10
207.1786910653083
 20
17.15508781880445
 10
206.7686883902068
 20
17.46895434779736
 10
206.7686883902068
 20
18.13501195051544
 97
        0
 72
     4
 94
        3
 73
     0
 74
     0
 95
        8
 96
        4
 40
1.0
 40
1.0
 40
1.0
 40
1.0
 40
2.0
 40
2.0
 40
2.0
 40
2.0
 10
206.7686883902068
 20
18.13501195051544
 10
206.7686883902068
 20
18.8267052764692
 10
207.2491953795266
 20
19.81931822967708
 10
208.1265365037751
 20
19.81931822967708
 97
        0
 72
     4
 94
        3
 73
     0
 74
     0
 95
        8
 96
        4
 40
0.0
 40
0.0
 40
0.0
 40
0.0
 40
1.0
 40
1.0
 40
1.0
 40
1.0
 10
208.1265365037751
 20
19.81931822967708
 10
208.5876552274573
 20
19.81931822967708
 10
208.984741481681
 20
19.50557661771403
 10
208.984741481681
 20
18.8458398167021
 97
        0
 72
     4
 94
        3
 73
     0
 74
     0
 95
        8
 96
        4
 40
3.0
 40
3.0
 40
3.0
 40
3.0
 40
4.0
 40
4.0
 40
4.0
 40
4.0
 10
208.984741481681
 20
18.8458398167021
 10
208.984741481681
 20
18.1862529161259
 10
208.6005966317413
 20
17.15508781880445
 10
207.6526012928387
 20
17.15508781880445
 97
        0
 97
        1
330
3D875
 75
     1
 76
     1
 47
0.0269459378258844
 98
        2
 10
206.3304566757452
 20
17.45500493764032
 10
206.3304566757452
 20
17.45500493764032
450
        0
451
        0
460
0.0
461
0.0
452
        0
462
1.0
453
        2
463
0.0
 63
     5
421
      255
463
1.0
 63
     2
421
 16776960
470
LINEAR
1001
GRADIENTCOLOR1ACI
1070
     5
1001
GRADIENTCOLOR2ACI
1070
     2
1001
ACAD
1010
0.0
1020
0.0
1030
0.0
  0
SPLINE
  5
3D874
102
{ACAD_REACTORS
330
3D873
102
}
330
2
100
AcDbEntity
  8
Layer 1
100
AcDbSpline
210
0.0
220
0.0
230
1.0
 70
     9
 71
     3
 72
    17
 73
    13
 74
     0
 42
0.000000001
 43
0.0000000001
 40
0.0
 40
0.0
 40
0.0
 40
0.0
 40
1.0
 40
1.0
 40
1.0
 40
2.0
 40
2.0
 40
2.0
 40
3.0
 40
3.0
 40
3.0
 40
4.0
 40
4.0
 40
4.0
 40
4.0
 10
207.5691817003603
 20
16.0663109873545
 30
0.0
 10
206.1731339590891
 20
16.0663109873545
 30
0.0
 10
205.3661699467935
 20
16.9694111457587
 30
0.0
 10
205.3661699467935
 20
18.14770352073974
 30
0.0
 10
205.3661699467935
 20
19.43492354567777
 30
0.0
 10
206.3268318725145
 20
20.85682911211063
 30
0.0
 10
208.1137200165209
 20
20.85682911211063
 30
0.0
 10
209.5674794255443
 20
20.85682911211063
 30
0.0
 10
210.3743185208101
 20
19.90898644971182
 30
0.0
 10
210.3743185208101
 20
18.76252015784749
 30
0.0
 10
210.3743185208101
 20
17.48164591802165
 30
0.0
 10
209.4201023138254
 20
16.0663109873545
 30
0.0
 10
207.5691817003603
 20
16.0663109873545
 30
0.0
  0
SPLINE
  5
3D875
102
{ACAD_REACTORS
330
3D873
102
}
330
2
100
AcDbEntity
  8
Layer 1
100
AcDbSpline
210
0.0
220
0.0
230
1.0
 70
     9
 71
     3
 72
    17
 73
    13
 74
     0
 42
0.000000001
 43
0.0000000001
 40
0.0
 40
0.0
 40
0.0
 40
0.0
 40
1.0
 40
1.0
 40
1.0
 40
2.0
 40
2.0
 40
2.0
 40
3.0
 40
3.0
 40
3.0
 40
4.0
 40
4.0
 40
4.0
 40
4.0
 10
208.984741481681
 20
18.8458398167021
 30
0.0
 10
208.984741481681
 20
19.50557661771403
 30
0.0
 10
208.5876552274573
 20
19.81931822967708
 30
0.0
 10
208.1265365037751
 20
19.81931822967708
 30
0.0
 10
207.2491953795266
 20
19.81931822967708
 30
0.0
 10
206.7686883902068
 20
18.8267052764692
 30
0.0
 10
206.7686883902068
 20
18.13501195051544
 30
0.0
 10
206.7686883902068
 20
17.46895434779736
 30
0.0
 10
207.1786910653083
 20
17.15508781880445
 30
0.0
 10
207.6526012928387
 20
17.15508781880445
 30
0.0
 10
208.6005966317413
 20
17.15508781880445
 30
0.0
 10
208.984741481681
 20
18.1862529161259
 30
0.0
 10
208.984741481681
 20
18.8458398167021
 30
0.0
  0
HATCH
  5
3D876
330
2
100
AcDbEntity
  8
0
  6
Continuous
 62
     0
100
AcDbHatch
 10
0.0
 20
0.0
 30
0.0
210
0.0
220
0.0
230
1.0
  2
SOLID
 70
     1
 71
     1
 91
        2
 92
        5
 93
        4
 72
     4
 94
        3
 73
     0
 74
     0
 95
        8
 96
        4
 40
0.0
 40
0.0
 40
0.0
 40
0.0
 40
1.0
 40
1.0
 40
1.0
 40
1.0
 10
210.5307146420782
 20
18.14770352073974
 10
210.5307146420782
 20
16.9694111457587
 10
211.3377785879976
 20
16.0663109873545
 10
212.7337014122389
 20
16.0663109873545
 97
        0
 72
     4
 94
        3
 73
     0
 74
     0
 95
        8
 96
        4
 40
3.0
 40
3.0
 40
3.0
 40
3.0
 40
4.0
 40
4.0
 40
4.0
 40
4.0
 10
212.7337014122389
 20
16.0663109873545
 10
214.58464700911
 20
16.0663109873545
 10
215.5388632160948
 20
17.48164591802165
 10
215.5388632160948
 20
18.76252015784749
 97
        0
 72
     4
 94
        3
 73
     0
 74
     0
 95
        8
 96
        4
 40
2.0
 40
2.0
 40
2.0
 40
2.0
 40
3.0
 40
3.0
 40
3.0
 40
3.0
 10
215.5388632160948
 20
18.76252015784749
 10
215.5388632160948
 20
19.90898644971182
 10
214.7318992037993
 20
20.85682911211063
 10
213.2782647118057
 20
20.85682911211063
 97
        0
 72
     4
 94
        3
 73
     0
 74
     0
 95
        8
 96
        4
 40
1.0
 40
1.0
 40
1.0
 40
1.0
 40
2.0
 40
2.0
 40
2.0
 40
2.0
 10
213.2782647118057
 20
20.85682911211063
 10
211.4912516507695
 20
20.85682911211063
 10
210.5307146420782
 20
19.43492354567777
 10
210.5307146420782
 20
18.14770352073974
 97
        0
 97
        1
330
3D878
 92
       20
 93
        4
 72
     4
 94
        3
 73
     0
 74
     0
 95
        8
 96
        4
 40
0.0
 40
0.0
 40
0.0
 40
0.0
 40
1.0
 40
1.0
 40
1.0
 40
1.0
 10
214.149161259936
 20
18.8458398167021
 10
214.149161259936
 20
19.50557661771403
 10
213.7520750057123
 20
19.81931822967708
 10
213.2907064479705
 20
19.81931822967708
 97
        0
 72
     4
 94
        3
 73
     0
 74
     0
 95
        8
 96
        4
 40
1.0
 40
1.0
 40
1.0
 40
1.0
 40
2.0
 40
2.0
 40
2.0
 40
2.0
 10
213.2907064479705
 20
19.81931822967708
 10
212.4136140151638
 20
19.81931822967708
 10
211.9333342800643
 20
18.8267052764692
 10
211.9333342800643
 20
18.13501195051544
 97
        0
 72
     4
 94
        3
 73
     0
 74
     0
 95
        8
 96
        4
 40
2.0
 40
2.0
 40
2.0
 40
2.0
 40
3.0
 40
3.0
 40
3.0
 40
3.0
 10
211.9333342800643
 20
18.13501195051544
 10
211.9333342800643
 20
17.46895434779736
 10
212.3429859265335
 20
17.15508781880445
 10
212.816896154064
 20
17.15508781880445
 97
        0
 72
     4
 94
        3
 73
     0
 74
     0
 95
        8
 96
        4
 40
3.0
 40
3.0
 40
3.0
 40
3.0
 40
4.0
 40
4.0
 40
4.0
 40
4.0
 10
212.816896154064
 20
17.15508781880445
 10
213.7647665759366
 20
17.15508781880445
 10
214.149161259936
 20
18.1862529161259
 10
214.149161259936
 20
18.8458398167021
 97
        0
 97
        1
330
3D877
 75
     1
 76
     1
 47
0.0269459378258844
 98
        2
 10
211.8459599216342
 20
17.81942158474831
 10
211.8459599216342
 20
17.81942158474831
450
        0
451
        0
460
0.0
461
0.0
452
        0
462
1.0
453
        2
463
0.0
 63
     5
421
      255
463
1.0
 63
     2
421
 16776960
470
LINEAR
1001
GRADIENTCOLOR1ACI
1070
     5
1001
GRADIENTCOLOR2ACI
1070
     2
1001
ACAD
1010
0.0
1020
0.0
1030
0.0
  0
SPLINE
  5
3D877
102
{ACAD_REACTORS
330
3D876
102
}
330
2
100
AcDbEntity
  8
Layer 1
100
AcDbSpline
210
0.0
220
0.0
230
1.0
 70
     9
 71
     3
 72
    17
 73
    13
 74
     0
 42
0.000000001
 43
0.0000000001
 40
0.0
 40
0.0
 40
0.0
 40
0.0
 40
1.0
 40
1.0
 40
1.0
 40
2.0
 40
2.0
 40
2.0
 40
3.0
 40
3.0
 40
3.0
 40
4.0
 40
4.0
 40
4.0
 40
4.0
 10
214.149161259936
 20
18.8458398167021
 30
0.0
 10
214.149161259936
 20
19.50557661771403
 30
0.0
 10
213.7520750057123
 20
19.81931822967708
 30
0.0
 10
213.2907064479705
 20
19.81931822967708
 30
0.0
 10
212.4136140151638
 20
19.81931822967708
 30
0.0
 10
211.9333342800643
 20
18.8267052764692
 30
0.0
 10
211.9333342800643
 20
18.13501195051544
 30
0.0
 10
211.9333342800643
 20
17.46895434779736
 30
0.0
 10
212.3429859265335
 20
17.15508781880445
 30
0.0
 10
212.816896154064
 20
17.15508781880445
 30
0.0
 10
213.7647665759366
 20
17.15508781880445
 30
0.0
 10
214.149161259936
 20
18.1862529161259
 30
0.0
 10
214.149161259936
 20
18.8458398167021
 30
0.0
  0
SPLINE
  5
3D878
102
{ACAD_REACTORS
330
3D876
102
}
330
2
100
AcDbEntity
  8
Layer 1
100
AcDbSpline
210
0.0
220
0.0
230
1.0
 70
     9
 71
     3
 72
    17
 73
    13
 74
     0
 42
0.000000001
 43
0.0000000001
 40
0.0
 40
0.0
 40
0.0
 40
0.0
 40
1.0
 40
1.0
 40
1.0
 40
2.0
 40
2.0
 40
2.0
 40
3.0
 40
3.0
 40
3.0
 40
4.0
 40
4.0
 40
4.0
 40
4.0
 10
212.7337014122389
 20
16.0663109873545
 30
0.0
 10
211.3377785879976
 20
16.0663109873545
 30
0.0
 10
210.5307146420782
 20
16.9694111457587
 30
0.0
 10
210.5307146420782
 20
18.14770352073974
 30
0.0
 10
210.5307146420782
 20
19.43492354567777
 30
0.0
 10
211.4912516507695
 20
20.85682911211063
 30
0.0
 10
213.2782647118057
 20
20.85682911211063
 30
0.0
 10
214.7318992037993
 20
20.85682911211063
 30
0.0
 10
215.5388632160948
 20
19.90898644971182
 30
0.0
 10
215.5388632160948
 20
18.76252015784749
 30
0.0
 10
215.5388632160948
 20
17.48164591802165
 30
0.0
 10
214.58464700911
 20
16.0663109873545
 30
0.0
 10
212.7337014122389
 20
16.0663109873545
 30
0.0
  0
HATCH
  5
3D879
330
2
100
AcDbEntity
  8
0
  6
Continuous
 62
     0
100
AcDbHatch
 10
0.0
 20
0.0
 30
0.0
210
0.0
220
0.0
230
1.0
  2
SOLID
 70
     1
 71
     1
 91
        1
 92
        5
 93
        6
 72
     4
 94
        3
 73
     0
 74
     0
 95
        8
 96
        4
 40
4.0
 40
4.0
 40
4.0
 40
4.0
 40
5.0
 40
5.0
 40
5.0
 40
5.0
 10
216.9245192475261
 20
17.25107406447754
 10
216.9245192475261
 20
17.25107406447754
 10
217.8532260099956
 20
20.72241838808124
 10
217.8532260099956
 20
20.72241838808124
 97
        0
 72
     4
 94
        3
 73
     0
 74
     0
 95
        8
 96
        4
 40
3.0
 40
3.0
 40
3.0
 40
3.0
 40
4.0
 40
4.0
 40
4.0
 40
4.0
 10
217.8532260099956
 20
20.72241838808124
 10
217.8532260099956
 20
20.72241838808124
 10
216.4311955265331
 20
20.72241838808124
 10
216.4311955265331
 20
20.72241838808124
 97
        0
 72
     4
 94
        3
 73
     0
 74
     0
 95
        8
 96
        4
 40
2.0
 40
2.0
 40
2.0
 40
2.0
 40
3.0
 40
3.0
 40
3.0
 40
3.0
 10
216.4311955265331
 20
20.72241838808124
 10
216.4311955265331
 20
20.72241838808124
 10
215.2209493753376
 20
16.20087161181958
 10
215.2209493753376
 20
16.20087161181958
 97
        0
 72
     4
 94
        3
 73
     0
 74
     0
 95
        8
 96
        4
 40
1.0
 40
1.0
 40
1.0
 40
1.0
 40
2.0
 40
2.0
 40
2.0
 40
2.0
 10
215.2209493753376
 20
16.20087161181958
 10
215.2209493753376
 20
16.20087161181958
 10
218.1479566679717
 20
16.20087161181958
 10
218.1479566679717
 20
16.20087161181958
 97
        0
 72
     4
 94
        3
 73
     0
 74
     0
 95
        8
 96
        4
 40
0.0
 40
0.0
 40
0.0
 40
0.0
 40
1.0
 40
1.0
 40
1.0
 40
1.0
 10
218.1479566679717
 20
16.20087161181958
 10
218.1479566679717
 20
16.20087161181958
 10
218.4953744932165
 20
17.25107406447754
 10
218.4953744932165
 20
17.25107406447754
 97
        0
 72
     4
 94
        3
 73
     0
 74
     0
 95
        8
 96
        4
 40
5.0
 40
5.0
 40
5.0
 40
5.0
 40
6.0
 40
6.0
 40
6.0
 40
6.0
 10
218.4953744932165
 20
17.25107406447754
 10
218.4953744932165
 20
17.25107406447754
 10
216.9245192475261
 20
17.25107406447754
 10
216.9245192475261
 20
17.25107406447754
 97
        0
 97
        6
330
3D87E
330
3D87D
330
3D87C
330
3D87B
330
3D87A
330
3D87F
 75
     1
 76
     1
 47
0.0168242271866721
 98
        1
 10
216.4890548856337
 20
17.54602422037659
450
        0
451
        0
460
0.0
461
0.0
452
        0
462
1.0
453
        2
463
0.0
 63
     5
421
      255
463
1.0
 63
     2
421
 16776960
470
LINEAR
1001
GRADIENTCOLOR1ACI
1070
     5
1001
GRADIENTCOLOR2ACI
1070
     2
1001
ACAD
1010
0.0
1020
0.0
1030
0.0
  0
SPLINE
  5
3D87A
102
{ACAD_REACTORS
330
3D879
102
}
330
2
100
AcDbEntity
  8
Layer 1
100
AcDbSpline
210
0.0
220
0.0
230
1.0
 70
    24
 71
     3
 72
     8
 73
     4
 74
     0
 42
0.000000001
 43
0.0000000001
 40
0.0
 40
0.0
 40
0.0
 40
0.0
 40
1.0
 40
1.0
 40
1.0
 40
1.0
 10
218.4953744932165
 20
17.25107406447754
 30
0.0
 10
218.4953744932165
 20
17.25107406447754
 30
0.0
 10
218.1479566679717
 20
16.20087161181958
 30
0.0
 10
218.1479566679717
 20
16.20087161181958
 30
0.0
  0
SPLINE
  5
3D87B
102
{ACAD_REACTORS
330
3D879
102
}
330
2
100
AcDbEntity
  8
Layer 1
100
AcDbSpline
210
0.0
220
0.0
230
1.0
 70
    24
 71
     3
 72
     8
 73
     4
 74
     0
 42
0.000000001
 43
0.0000000001
 40
1.0
 40
1.0
 40
1.0
 40
1.0
 40
2.0
 40
2.0
 40
2.0
 40
2.0
 10
218.1479566679717
 20
16.20087161181958
 30
0.0
 10
218.1479566679717
 20
16.20087161181958
 30
0.0
 10
215.2209493753376
 20
16.20087161181958
 30
0.0
 10
215.2209493753376
 20
16.20087161181958
 30
0.0
  0
SPLINE
  5
3D87C
102
{ACAD_REACTORS
330
3D879
102
}
330
2
100
AcDbEntity
  8
Layer 1
100
AcDbSpline
210
0.0
220
0.0
230
1.0
 70
    24
 71
     3
 72
     8
 73
     4
 74
     0
 42
0.000000001
 43
0.0000000001
 40
2.0
 40
2.0
 40
2.0
 40
2.0
 40
3.0
 40
3.0
 40
3.0
 40
3.0
 10
215.2209493753376
 20
16.20087161181958
 30
0.0
 10
215.2209493753376
 20
16.20087161181958
 30
0.0
 10
216.4311955265331
 20
20.72241838808124
 30
0.0
 10
216.4311955265331
 20
20.72241838808124
 30
0.0
  0
SPLINE
  5
3D87D
102
{ACAD_REACTORS
330
3D879
102
}
330
2
100
AcDbEntity
  8
Layer 1
100
AcDbSpline
210
0.0
220
0.0
230
1.0
 70
    24
 71
     3
 72
     8
 73
     4
 74
     0
 42
0.000000001
 43
0.0000000001
 40
3.0
 40
3.0
 40
3.0
 40
3.0
 40
4.0
 40
4.0
 40
4.0
 40
4.0
 10
216.4311955265331
 20
20.72241838808124
 30
0.0
 10
216.4311955265331
 20
20.72241838808124
 30
0.0
 10
217.8532260099956
 20
20.72241838808124
 30
0.0
 10
217.8532260099956
 20
20.72241838808124
 30
0.0
  0
SPLINE
  5
3D87E
102
{ACAD_REACTORS
330
3D879
102
}
330
2
100
AcDbEntity
  8
Layer 1
100
AcDbSpline
210
0.0
220
0.0
230
1.0
 70
    24
 71
     3
 72
     8
 73
     4
 74
     0
 42
0.000000001
 43
0.0000000001
 40
4.0
 40
4.0
 40
4.0
 40
4.0
 40
5.0
 40
5.0
 40
5.0
 40
5.0
 10
217.8532260099956
 20
20.72241838808124
 30
0.0
 10
217.8532260099956
 20
20.72241838808124
 30
0.0
 10
216.9245192475261
 20
17.25107406447754
 30
0.0
 10
216.9245192475261
 20
17.25107406447754
 30
0.0
  0
SPLINE
  5
3D87F
102
{ACAD_REACTORS
330
3D879
102
}
330
2
100
AcDbEntity
  8
Layer 1
100
AcDbSpline
210
0.0
220
0.0
230
1.0
 70
    24
 71
     3
 72
     8
 73
     4
 74
     0
 42
0.000000001
 43
0.0000000001
 40
5.0
 40
5.0
 40
5.0
 40
5.0
 40
6.0
 40
6.0
 40
6.0
 40
6.0
 10
216.9245192475261
 20
17.25107406447754
 30
0.0
 10
216.9245192475261
 20
17.25107406447754
 30
0.0
 10
218.4953744932165
 20
17.25107406447754
 30
0.0
 10
218.4953744932165
 20
17.25107406447754
 30
0.0
  0
TEXT
  5
3D880
330
2
100
AcDbEntity
  8
0
 62
     2
100
AcDbText
 10
188.3354371153707
 20
10.88486619604659
 30
0.0
 40
2.208919999999999
  1
www.maritool.com
  7
굴림
100
AcDbText
  0
TEXT
  5
3D881
330
2
100
AcDbEntity
  8
0
 62
     2
100
AcDbText
 10
173.2332893351091
 20
3.485802478477989
 30
0.0
 40
1.767135999999999
  1
ITEM#
  7
굴림
100
AcDbText
  0
TEXT
  5
3D882
330
2
100
AcDbEntity
  8
0
 62
     2
100
AcDbText
 10
187.0597580324446
 20
3.065935893929943
 30
0.0
 40
2.650703999999999
  1
AHC1.0-.1969(5 MM)
  7
굴림
100
AcDbText
  0
LINE
  5
3D886
330
2
100
AcDbEntity
  8
0
  6
Continuous
 62
     3
100
AcDbLine
 10
100.1801007648275
 20
69.10846227389265
 30
0.0
 11
100.1801007648275
 21
51.20740411678534
 31
0.0
  0
MTEXT
  5
3D887
330
2
100
AcDbEntity
  8
0
  6
Continuous
 62
     2
100
AcDbMText
 10
100.1806349339751
 20
48.75858901298929
 30
0.0
 40
3.0
 41
0.0
 46
0.0
 71
     5
 72
     1
  1
0.00
 73
     1
 44
1.0
  0
LINE
  5
3D888
330
2
100
AcDbEntity
  8
0
  6
Continuous
 62
     3
100
AcDbLine
 10
107.6801007648242
 20
68.9689334212897
 30
0.0
 11
107.6801007648242
 21
64.61682784429112
 31
0.0
  0
LINE
  5
3D889
330
2
100
AcDbEntity
  8
0
  6
Continuous
 62
     3
100
AcDbLine
 10
107.6801007648242
 20
64.61682784429112
 30
0.0
 11
113.7210330948216
 21
59.61682784429112
 31
0.0
  0
LINE
  5
3D88A
330
2
100
AcDbEntity
  8
0
  6
Continuous
 62
     3
100
AcDbLine
 10
113.7210330948216
 20
59.61682784429112
 30
0.0
 11
113.7210330948216
 21
51.06445378986908
 31
0.0
  0
MTEXT
  5
3D88B
330
2
100
AcDbEntity
  8
0
  6
Continuous
 62
     2
100
AcDbMText
 10
113.6655763246956
 20
48.58300952936011
 30
0.0
 40
3.0
 41
0.0
 46
0.0
 71
     5
 72
     1
  1
0.295
 73
     1
 44
1.0
  0
LINE
  5
3D88C
330
2
100
AcDbEntity
  8
0
  6
Continuous
 62
     3
100
AcDbLine
 10
45.68010076482386
 20
76.40585609072175
 30
0.0
 11
45.68010076482386
 21
50.90296867840641
 31
0.0
  0
MTEXT
  5
3D88D
330
2
100
AcDbEntity
  8
0
  6
Continuous
 62
     2
100
AcDbMText
 10
45.68063493397147
 20
48.45415357461035
 30
0.0
 40
3.0
 41
0.0
 46
0.0
 71
     5
 72
     1
  1
2.145
 73
     1
 44
1.0
  0
DIMENSION
  5
3FE03
330
2
100
AcDbEntity
  8
0
  6
Continuous
 62
     7
100
AcDbDimension
280
     0
  2
*D0
 10
117.9955746147958
 20
92.07181720257953
 30
0.0
 11
117.9955746147957
 21
86.32181720257955
 31
0.0
 70
   160
  1
%%C.1969(5 MM)
 71
     5
 42
11.49999999999997
 73
     0
 74
     0
 75
     0
  3
Standard$0
100
AcDbAlignedDimension
 13
106.6801007648244
 23
80.57181720257956
 33
0.0
 14
107.1801007648042
 24
92.07181720257953
 34
0.0
 50
90.0
100
AcDbRotatedDimension
1001
ACAD
1000
DSTYLE
1002
{
1070
    42
1040
0.625
1070
    43
1040
3.75
1070
    44
1040
1.25
1070
    48
1040
0.000000001
1070
    74
1070
     0
1070
    75
1070
     1
1070
    77
1070
     1
1070
    90
1070
     1
1070
   140
1040
3.0
1070
   141
1040
-0.5
1070
   143
1040
0.03937007874016
1070
   146
1040
0.7
1070
   147
1040
0.625
1070
   171
1070
     3
1070
   172
1070
     1
1070
   175
1070
     0
1070
   179
1070
     0
1070
   274
1070
     3
1070
   281
1070
     1
1070
   283
1070
     0
1070
   284
1070
     8
1070
   340
1005
25
1070
   371
1070
    -1
1070
   372
1070
    -1
1002
}
  0
DIMENSION
  5
3FE04
330
2
100
AcDbEntity
  8
0
  6
Continuous
 62
     7
100
AcDbDimension
280
     0
  2
*D1
 10
125.9955746147958
 20
110.0718172025795
 30
0.0
 11
123.8705746147957
 21
89.57181720257956
 31
0.0
 70
    32
  1
%%C1.61
 71
     5
 42
20.5
 73
     0
 74
     0
 75
     0
  3
Standard$0
100
AcDbAlignedDimension
 13
107.3801007648242
 23
69.07181720257955
 33
0.0
 14
107.3801007648242
 24
110.0718172025795
 34
0.0
 50
90.0
100
AcDbRotatedDimension
1001
ACAD
1000
DSTYLE
1002
{
1070
    42
1040
0.625
1070
    43
1040
3.75
1070
    44
1040
1.25
1070
    48
1040
0.000000001
1070
    74
1070
     0
1070
    77
1070
     1
1070
    90
1070
     1
1070
   140
1040
3.0
1070
   141
1040
-0.5
1070
   143
1040
0.03937007874016
1070
   144
1040
0.5
1070
   146
1040
0.7
1070
   147
1040
0.625
1070
   171
1070
     3
1070
   172
1070
     1
1070
   175
1070
     0
1070
   179
1070
     0
1070
   274
1070
     3
1070
   283
1070
     0
1070
   284
1070
     8
1070
   340
1005
25
1070
   371
1070
    -1
1070
   372
1070
    -1
1002
}
  0
DIMENSION
  5
4C316
330
2
100
AcDbEntity
  8
0
 62
     7
100
AcDbDimension
280
     0
  2
*D2
 10
71.97821889491357
 20
102.271817202579
 30
0.0
 11
71.97821889491354
 21
110.943393085003
 31
0.0
 70
   160
  1
%%C1.000
 71
     5
 42
25.39999999999903
 73
     0
 74
     0
 75
     0
  3
Standard$0
100
AcDbAlignedDimension
 13
76.30510076481471
 23
76.87181720257997
 33
0.0
 14
76.30510076481039
 24
102.271817202579
 34
0.0
 50
90.0
100
AcDbRotatedDimension
1001
ACAD
1000
DSTYLE
1002
{
1070
    42
1040
0.625
1070
    43
1040
3.75
1070
    44
1040
1.25
1070
    48
1040
0.000000001
1070
    74
1070
     0
1070
    77
1070
     1
1070
    90
1070
     1
1070
   140
1040
3.0
1070
   141
1040
-0.5
1070
   143
1040
0.03937007874016
1070
   146
1040
0.7
1070
   147
1040
0.625
1070
   171
1070
     3
1070
   172
1070
     1
1070
   175
1070
     0
1070
   179
1070
     1
1070
   274
1070
     3
1070
   283
1070
     0
1070
   284
1070
     8
1070
   340
1005
25
1070
   371
1070
    -1
1070
   372
1070
    -1
1002
}
  0
LINE
  5
4CB93
330
2
100
AcDbEntity
  8
0
  6
CENTER
 62
     3
100
AcDbLine
 10
43.68010076482386
 20
89.57181720257954
 30
0.0
 11
109.6801007648238
 21
89.57181720257954
 31
0.0
  0
LINE
  5
4CB94
330
2
100
AcDbEntity
  8
0
  6
Continuous
100
AcDbLine
 10
45.68010076482386
 20
77.3718172025795
 30
0.0
 11
45.68010076482386
 21
89.57181720257954
 31
0.0
  0
POINT
  5
4CB95
330
2
100
AcDbEntity
  8
DEFPOINTS
  6
ByBlock
 62
     0
100
AcDbPoint
 10
45.68010076482386
 20
78.82181720257955
 30
0.0
 50
0.000000000000007
  0
HATCH
  5
4CB96
330
2
100
AcDbEntity
  8
0
 62
     4
100
AcDbHatch
 10
0.0
 20
0.0
 30
0.0
210
0.0
220
0.0
230
1.0
  2
ANSI31
 70
     0
 71
     0
 91
        7
 92
        7
 72
     1
 73
     1
 93
       13
 10
56.99258683834898
 20
102.2718172025757
 42
0.0
 10
54.43010076481977
 20
102.2718172025752
 42
0.0
 10
54.18010076482386
 20
102.0218172025793
 42
0.0
 10
49.93010076482386
 20
102.0218172025793
 42
0.0
 10
49.6801007648234
 20
102.2718172025793
 42
0.0
 10
46.18010076482386
 20
102.2718172025793
 42
0.4142135623730951
 10
45.68010076482386
 20
101.7718172025793
 42
0.0
 10
45.68010076482386
 20
100.7718172025803
 42
0.19891236737981
 10
45.97299398363776
 20
100.0647104213933
 42
0.0
 10
46.42128171972058
 20
99.80589137629142
 42
0.0655434628154335
 10
46.68010076482386
 20
99.77181720258029
 42
0.0
 10
56.67033162733997
 20
99.77181720257906
 42
-0.0310387081198946
 10
56.63149582772632
 20
100.3968172025784
 42
-0.0954143139495294
 97
        0
 92
        7
 72
     1
 73
     1
 93
        5
 10
59.18010076482386
 20
102.271817202576
 42
0.0
 10
56.99258683834898
 20
102.2718172025757
 42
0.0954143139495294
 10
56.63149582772632
 20
100.3968172025784
 42
0.031038708119925
 10
56.67033162733997
 20
99.77181720257846
 42
0.0
 10
59.18010076482386
 20
99.77181720257846
 42
0.0
 97
        0
 92
        7
 72
     0
 73
     1
 93
        5
 10
107.6801007648242
 20
99.35264967981726
 10
96.68010076482387
 20
99.35264967981726
 10
96.68010076482387
 20
92.07181720257953
 10
107.1801007648043
 20
92.07181720257961
 10
107.6801007648242
 20
92.36049233718455
 97
        0
 92
        7
 72
     1
 73
     1
 93
       11
 10
107.6801007648242
 20
103.7218172025812
 42
0.0
 10
102.1801007648241
 20
103.7218172025812
 42
0.0
 10
102.1801007648241
 20
103.5218172025812
 42
0.0
 10
100.1801007648245
 20
103.5218172025812
 42
0.0
 10
100.1801007648242
 20
102.3718172025827
 42
-0.4142135623730047
 10
99.78010076482433
 20
101.9718172025826
 42
0.0
 10
99.29971600707922
 20
101.9718172025825
 42
0.0
 10
98.18010076480767
 20
102.2718172025827
 42
0.0
 10
96.68010076482387
 20
102.2718172025824
 42
0.0
 10
96.68010076482387
 20
99.35264967981726
 42
0.0
 10
107.6801007648242
 20
99.35264967981726
 42
0.0
 97
        0
 92
        7
 72
     1
 73
     1
 93
        8
 10
107.6801007648242
 20
109.7718172025796
 42
0.4142135623730951
 10
107.3801007648242
 20
110.0718172025796
 42
0.0
 10
100.4801007648241
 20
110.0718172025796
 42
0.414213562373109
 10
100.1801007648241
 20
109.7718172025796
 42
0.0
 10
100.1801007648242
 20
108.9218172025812
 42
0.0
 10
102.1801007648241
 20
108.9218172025812
 42
0.0
 10
102.1801007648241
 20
108.7218172025812
 42
0.0
 10
107.6801007648242
 20
108.7218172025812
 42
0.0
 97
        0
 92
        7
 72
     0
 73
     1
 93
        4
 10
107.6801007648242
 20
108.7218172025812
 10
102.1801007648241
 20
108.7218172025812
 10
102.1801007648241
 20
108.3718172025812
 10
107.6801007648242
 20
108.3718172025812
 97
        0
 92
        7
 72
     0
 73
     1
 93
        4
 10
107.6801007648242
 20
104.0718172025812
 10
102.1801007648241
 20
104.0718172025812
 10
102.1801007648241
 20
103.7218172025812
 10
107.6801007648242
 20
103.7218172025812
 97
        0
 75
     1
 76
     1
 52
0.0
 41
1.0
 77
     0
 78
     1
 53
45.0
 43
-126.5461291688487
 44
-53.54320978396462
 45
-2.245064030267287
 46
2.245064030267288
 79
     0
 47
0.0128853866535022
 98
        7
 10
52.92214398302366
 20
101.1374861938409
 10
58.24850107792025
 20
101.1460255164117
 10
99.40977320386009
 20
97.07312569511461
 10
103.458022977051
 20
100.9502186515112
 10
104.772623488194
 20
109.3505193645485
 10
104.6492274792046
 20
108.5308063847298
 10
104.9844638301649
 20
103.9049507142979
1001
GRADIENTCOLOR1ACI
1070
     5
1001
GRADIENTCOLOR2ACI
1070
     2
1001
ACAD
1010
0.0
1020
0.0
1030
0.0
  0
LINE
  5
4CB97
330
2
100
AcDbEntity
  8
0
  6
Continuous
100
AcDbLine
 10
45.68010076482386
 20
101.7718172025793
 30
0.0
 11
45.68010076482386
 21
89.57181720257954
 31
0.0
1001
ACAD
1000
ASC_BOUNDS
1002
{
1070
    19
1002
}
  0
ARC
  5
4CB98
330
2
100
AcDbEntity
  8
0
  6
Continuous
 62
     7
100
AcDbCircle
 10
46.18010076482386
 20
101.7718172025793
 30
0.0
 40
0.5
100
AcDbArc
 50
89.99999999997395
 51
180.0
1001
ACAD
1000
ASC_BOUNDS
1002
{
1070
    19
1002
}
  0
LINE
  5
4CB99
330
2
100
AcDbEntity
  8
0
 62
     0
100
AcDbLine
 10
46.18010076482386
 20
102.2718172025793
 30
0.0
 11
49.6801007648234
 21
102.2718172025793
 31
0.0
  0
LINE
  5
4CB9A
330
2
100
AcDbEntity
  8
0
  6
Continuous
100
AcDbLine
 10
54.18010076482386
 20
77.12181720257951
 30
0.0
 11
54.18010076482386
 21
89.57181720257954
 31
0.0
  0
LINE
  5
4CB9B
330
2
100
AcDbEntity
  8
0
  6
Continuous
100
AcDbLine
 10
49.93010076482386
 20
77.12181720257951
 30
0.0
 11
49.93010076482386
 21
89.57181720257954
 31
0.0
  0
LINE
  5
4CB9C
330
2
100
AcDbEntity
  8
0
 62
     0
100
AcDbLine
 10
49.93010076482386
 20
77.12181720257951
 30
0.0
 11
54.18010076482386
 21
77.12181720257951
 31
0.0
  0
LINE
  5
4CB9D
330
2
100
AcDbEntity
  8
0
  6
Continuous
100
AcDbLine
 10
51.86277319476193
 20
77.12181720257951
 30
0.0
 11
54.01866293705751
 21
77.12181720257951
 31
0.0
  0
LINE
  5
4CB9E
330
2
100
AcDbEntity
  8
0
  6
Continuous
100
AcDbLine
 10
54.18010076482386
 20
77.12181720257951
 30
0.0
 11
54.43010076482386
 21
76.8718172025795
 31
0.0
  0
LINE
  5
4CB9F
330
2
100
AcDbEntity
  8
0
  6
Continuous
100
AcDbLine
 10
49.6801007648234
 20
76.8718172025795
 30
0.0
 11
49.6801007648234
 21
89.57181720257954
 31
0.0
  0
LINE
  5
4CBA0
330
2
100
AcDbEntity
  8
0
  6
Continuous
100
AcDbLine
 10
54.43010076482386
 20
76.8718172025795
 30
0.0
 11
54.43010076482386
 21
89.57181720257954
 31
0.0
  0
LINE
  5
4CBA1
330
2
100
AcDbEntity
  8
0
 62
     0
100
AcDbLine
 10
49.93010076482386
 20
102.0218172025793
 30
0.0
 11
54.18010076482386
 21
102.0218172025793
 31
0.0
  0
LINE
  5
4CBA2
330
2
100
AcDbEntity
  8
0
  6
Continuous
100
AcDbLine
 10
49.6801007648234
 20
102.2718172025793
 30
0.0
 11
49.93010076482386
 21
102.0218172025793
 31
0.0
  0
LINE
  5
4CBA3
330
2
100
AcDbEntity
  8
0
  6
Continuous
100
AcDbLine
 10
54.18010076482386
 20
102.0218172025793
 30
0.0
 11
54.43010076482386
 21
102.2718172025793
 31
0.0
  0
ARC
  5
4CBA4
330
2
100
AcDbEntity
  8
0
  6
Continuous
 62
     7
100
AcDbCircle
 10
46.18010076482386
 20
77.3718172025795
 30
0.0
 40
0.5
100
AcDbArc
 50
180.0
 51
270.0
1001
ACAD
1000
ASC_BOUNDS
1002
{
1070
    19
1002
}
  0
LINE
  5
4CBA5
330
2
100
AcDbEntity
  8
0
 62
     0
100
AcDbLine
 10
46.18010076482386
 20
76.8718172025795
 30
0.0
 11
49.6801007648234
 21
76.8718172025795
 31
0.0
  0
LINE
  5
4CBA6
330
2
100
AcDbEntity
  8
0
  6
Continuous
100
AcDbLine
 10
49.6801007648234
 20
76.8718172025795
 30
0.0
 11
49.93010076482386
 21
77.12181720257951
 31
0.0
  0
LINE
  5
4CBA7
330
2
100
AcDbEntity
  8
0
  6
Continuous
 62
     7
100
AcDbLine
 10
59.18010076482386
 20
99.77181720257846
 30
0.0
 11
59.18010076482386
 21
102.2718172025762
 31
0.0
  0
LINE
  5
4CBA8
330
2
100
AcDbEntity
  8
0
  6
Continuous
 62
     7
100
AcDbLine
 10
61.18010076482386
 20
99.77181720257846
 30
0.0
 11
61.18010076482386
 21
102.2718172025764
 31
0.0
  0
LINE
  5
4CBA9
330
2
100
AcDbEntity
  8
0
  6
Continuous
 62
     7
100
AcDbLine
 10
96.68010076482387
 20
92.07181720257954
 30
0.0
 11
96.68010076482387
 21
102.2718172025825
 31
0.0
  0
ARC
  5
4CBAA
330
2
100
AcDbEntity
  8
0
  6
Continuous
 62
     7
100
AcDbCircle
 10
96.48010076482449
 20
84.57281730260053
 30
0.0
 40
0.2
100
AcDbArc
 50
300.0000000462569
 51
59.99999995387846
  0
LINE
  5
4CBAB
330
2
100
AcDbEntity
  8
0
  6
Continuous
 62
     7
100
AcDbLine
 10
96.5801007648244
 20
84.74602238335734
 30
0.0
 11
61.16546952217476
 21
84.74602238335734
 31
0.0
  0
LINE
  5
4CBAC
330
2
100
AcDbEntity
  8
0
  6
Continuous
 62
     7
100
AcDbLine
 10
96.5801007648244
 20
84.3996122218437
 30
0.0
 11
61.15411793201673
 21
84.3996122218437
 31
0.0
  0
ELLIPSE
  5
4CBAD
330
2
100
AcDbEntity
  8
0
  6
Continuous
 62
     7
100
AcDbEllipse
 10
60.18010076482432
 20
84.59688001704723
 30
0.0
 11
1.000314023029262
 21
0.0000000000002739
 31
0.0
210
0.0
220
0.0
230
1.0
 40
0.8657535372373271
 41
0.1730775918081102
 42
6.053382797577416
  0
LINE
  5
4CBAE
330
2
100
AcDbEntity
  8
0
  6
Continuous
100
AcDbLine
 10
54.43010076482204
 20
76.8718172025836
 30
0.0
 11
98.18010076480739
 21
76.87181720257635
 31
0.0
1001
ACAD
1000
ASC_BOUNDS
1002
{
1070
    19
1005
0
1005
0
1005
0
1002
}
  0
LINE
  5
4CBAF
330
2
100
AcDbEntity
  8
0
  6
Continuous
100
AcDbLine
 10
99.29971600707922
 20
77.17181720257667
 30
0.0
 11
99.78010076482423
 21
77.1718172025765
 31
0.0
1001
ACAD
1000
ASC_BOUNDS
1002
{
1070
    19
1005
0
1005
0
1005
0
1002
}
  0
LINE
  5
4CBB0
330
2
100
AcDbEntity
  8
0
  6
Continuous
100
AcDbLine
 10
98.18010076482421
 20
76.87181720258087
 30
0.0
 11
98.18010076482421
 21
89.57181720258091
 31
0.0
  0
LINE
  5
4CBB1
330
2
100
AcDbEntity
  8
0
  6
Continuous
100
AcDbLine
 10
54.43010076482204
 20
102.2718172025752
 30
0.0
 11
98.1801007648076
 21
102.2718172025827
 31
0.0
1001
ACAD
1000
ASC_BOUNDS
1002
{
1070
    19
1005
0
1005
0
1005
0
1002
}
  0
LINE
  5
4CBB2
330
2
100
AcDbEntity
  8
0
  6
Continuous
100
AcDbLine
 10
100.1801007648242
 20
69.3718172025795
 30
0.0
 11
100.1801007648242
 21
89.57181720257958
 31
0.0
  0
ARC
  5
4CBB3
330
2
100
AcDbEntity
  8
0
  6
Continuous
100
AcDbCircle
 10
99.78010076482423
 20
76.77181720257649
 30
0.0
 40
0.4
100
AcDbArc
 50
0.0
 51
89.99999999999023
  0
LINE
  5
4CBB4
330
2
100
AcDbEntity
  8
0
  6
Continuous
100
AcDbLine
 10
107.6801007648242
 20
69.3718172025795
 30
0.0
 11
107.6801007648242
 21
109.7718172025796
 31
0.0
  0
ARC
  5
4CBB5
330
2
100
AcDbEntity
  8
0
  6
Continuous
 62
     7
100
AcDbCircle
 10
107.3801007648242
 20
69.3718172025795
 30
0.0
 40
0.3
100
AcDbArc
 50
270.0
 51
0.0
  0
LINE
  5
4CBB6
330
2
100
AcDbEntity
  8
0
  6
Continuous
100
AcDbLine
 10
100.1801007648242
 20
109.7718172025796
 30
0.0
 11
100.1801007648245
 21
102.3718172025826
 31
0.0
  0
LINE
  5
4CBB7
330
2
100
AcDbEntity
  8
0
  6
Continuous
100
AcDbLine
 10
102.1801007648241
 20
108.9218172025812
 30
0.0
 11
102.1801007648241
 21
103.5218172025812
 31
0.0
  0
ARC
  5
4CBB8
330
2
100
AcDbEntity
  8
0
  6
Continuous
 62
     7
100
AcDbCircle
 10
100.4801007648241
 20
109.7718172025796
 30
0.0
 40
0.3
100
AcDbArc
 50
90.0
 51
180.0
  0
LINE
  5
4CBB9
330
2
100
AcDbEntity
  8
0
  6
Continuous
 62
     7
100
AcDbLine
 10
107.3801007648242
 20
110.0718172025795
 30
0.0
 11
100.4801007648241
 21
110.0718172025795
 31
0.0
  0
ARC
  5
4CBBA
330
2
100
AcDbEntity
  8
0
  6
Continuous
 62
     7
100
AcDbCircle
 10
107.3801007648242
 20
109.7718172025796
 30
0.0
 40
0.3
100
AcDbArc
 50
0.0
 51
90.0
  0
LINE
  5
4CBBB
330
2
100
AcDbEntity
  8
0
  6
Continuous
 62
     7
100
AcDbLine
 10
107.3801007648242
 20
69.07181720257955
 30
0.0
 11
100.4801007648241
 21
69.07181720257955
 31
0.0
  0
ARC
  5
4CBBC
330
2
100
AcDbEntity
  8
0
  6
Continuous
 62
     7
100
AcDbCircle
 10
100.4801007648241
 20
69.3718172025795
 30
0.0
 40
0.3
100
AcDbArc
 50
180.0
 51
270.0
  0
LINE
  5
4CBBD
330
2
100
AcDbEntity
  8
0
  6
Continuous
 62
     7
100
AcDbLine
 10
100.1801007648242
 20
108.9218172025812
 30
0.0
 11
102.1801007648241
 21
108.9218172025812
 31
0.0
  0
LINE
  5
4CBBE
330
2
100
AcDbEntity
  8
0
  6
Continuous
 62
     7
100
AcDbLine
 10
100.1801007648242
 20
103.5218172025812
 30
0.0
 11
102.1801007648241
 21
103.5218172025812
 31
0.0
  0
LINE
  5
4CBBF
330
2
100
AcDbEntity
  8
0
  6
CENTER2
 62
     3
100
AcDbLine
 10
109.6801007648241
 20
106.2218172025812
 30
0.0
 11
98.18010076482426
 21
106.2218172025812
 31
0.0
  0
LINE
  5
4CBC0
330
2
100
AcDbEntity
  8
0
  6
Continuous
 62
     7
100
AcDbLine
 10
107.680100764824
 20
104.0718172025812
 30
0.0
 11
102.1801007648241
 21
104.0718172025812
 31
0.0
  0
LINE
  5
4CBC1
330
2
100
AcDbEntity
  8
0
  6
Continuous
 62
     7
100
AcDbLine
 10
107.680100764824
 20
108.3718172025812
 30
0.0
 11
102.1801007648241
 21
108.3718172025812
 31
0.0
  0
LINE
  5
4CBC2
330
2
100
AcDbEntity
  8
0
  6
Continuous
 62
     3
100
AcDbLine
 10
107.680100764824
 20
103.7218172025812
 30
0.0
 11
102.1801007648241
 21
103.7218172025812
 31
0.0
  0
LINE
  5
4CBC3
330
2
100
AcDbEntity
  8
0
  6
Continuous
 62
     3
100
AcDbLine
 10
107.680100764824
 20
108.7218172025812
 30
0.0
 11
102.1801007648241
 21
108.7218172025812
 31
0.0
  0
LINE
  5
4CBC4
330
2
100
AcDbEntity
  8
0
  6
Continuous
100
AcDbLine
 10
61.68010076482386
 20
99.77181720257846
 30
0.0
 11
46.68010076482386
 21
99.77181720257846
 31
0.0
1001
ACAD
1000
ASC_BOUNDS
1002
{
1070
    19
1002
}
  0
ARC
  5
4CBC5
330
2
100
AcDbEntity
  8
0
  6
Continuous
100
AcDbCircle
 10
46.68010076482386
 20
100.7718172025803
 30
0.0
 40
1.0
100
AcDbArc
 50
180.0
 51
225.0000000000178
1001
ACAD
1000
ASC_BOUNDS
1002
{
1070
    19
1002
}
  0
LINE
  5
4CBC6
330
2
100
AcDbEntity
  8
0
  6
Continuous
100
AcDbLine
 10
45.97299398363719
 20
100.0647104213936
 30
0.0
 11
46.42128171972098
 21
99.80589137629118
 31
0.0
  0
ARC
  5
4CBC7
330
2
100
AcDbEntity
  8
0
  6
Continuous
100
AcDbCircle
 10
46.68010076482386
 20
100.7718172025803
 30
0.0
 40
1.0
100
AcDbArc
 50
255.0000000000056
 51
269.9999999999739
1001
ACAD
1000
ASC_BOUNDS
1002
{
1070
    19
1002
}
  0
POINT
  5
4CBC8
330
2
100
AcDbEntity
  8
DEFPOINTS
  6
ByBlock
 62
     0
100
AcDbPoint
 10
45.68010076482386
 20
99.82181720257955
 30
0.0
  0
POINT
  5
4CBC9
330
2
100
AcDbEntity
  8
DEFPOINTS
  6
ByBlock
 62
     0
100
AcDbPoint
 10
45.68010076482386
 20
99.82181720257955
 30
0.0
  0
POINT
  5
4CBCA
330
2
100
AcDbEntity
  8
DEFPOINTS
  6
ByBlock
 62
     0
100
AcDbPoint
 10
45.68010076482386
 20
99.82181720257955
 30
0.0
  0
POINT
  5
4CBCB
330
2
100
AcDbEntity
  8
DEFPOINTS
  6
ByBlock
 62
     0
100
AcDbPoint
 10
45.68010076482386
 20
99.82181720257955
 30
0.0
  0
LINE
  5
4CBCC
330
2
100
AcDbEntity
  8
0
  6
Continuous
100
AcDbLine
 10
46.42128171972098
 20
99.80589137629118
 30
0.0
 11
46.42128171972143
 21
89.57181720257954
 31
0.0
  0
LINE
  5
4CBCD
330
2
100
AcDbEntity
  8
0
  6
Continuous
100
AcDbLine
 10
45.97299398363719
 20
100.0647104213936
 30
0.0
 11
45.97299398363765
 21
89.57181720257954
 31
0.0
  0
LINE
  5
4CBCE
330
2
100
AcDbEntity
  8
0
  6
Continuous
100
AcDbLine
 10
61.68010076482386
 20
99.77181720257846
 30
0.0
 11
61.68010076482386
 21
89.57181720257954
 31
0.0
  0
POINT
  5
4CBCF
330
2
100
AcDbEntity
  8
DEFPOINTS
  6
ByBlock
 62
     0
100
AcDbPoint
 10
45.68010076482386
 20
99.82181720257955
 30
0.0
  0
LINE
  5
4CBD0
330
2
100
AcDbEntity
  8
0
  6
Continuous
100
AcDbLine
 10
61.68010076482386
 20
99.77181720257846
 30
0.0
 11
63.13010076482413
 21
98.32181720257819
 31
0.0
  0
LINE
  5
4CBD1
330
2
100
AcDbEntity
  8
0
100
AcDbLine
 10
63.13010076482413
 20
98.32181720257819
 30
0.0
 11
78.68298644779469
 21
98.32181720257958
 31
0.0
  0
LINE
  5
4CBD2
330
2
100
AcDbEntity
  8
0
  6
Continuous
100
AcDbLine
 10
63.13010076482413
 20
98.32181720257819
 30
0.0
 11
63.13010076482391
 21
89.57181720257819
 31
0.0
  0
LINE
  5
4CBD3
330
2
100
AcDbEntity
  8
0
  6
Continuous
100
AcDbLine
 10
78.68298644779469
 20
98.32181720257958
 30
0.0
 11
82.29142563022918
 21
92.07181720257947
 31
0.0
  0
LINE
  5
4CBD4
330
2
100
AcDbEntity
  8
0
  6
Continuous
100
AcDbLine
 10
78.68298644779469
 20
98.32181720257958
 30
0.0
 11
78.68298644779469
 21
89.57181720257958
 31
0.0
  0
CIRCLE
  5
4CBD6
330
2
100
AcDbEntity
  8
0
  6
CENTER
 62
     3
100
AcDbCircle
 10
169.6474610553331
 20
89.57181720257954
 30
0.0
 40
16.65000000000168
  0
ARC
  5
4CBD7
330
2
100
AcDbEntity
  8
0
  6
Continuous
 62
     3
100
AcDbCircle
 10
161.3224610553323
 20
103.9911401755919
 30
0.0
 40
1.0
100
AcDbArc
 50
263.5370905671544
 51
162.9700963829981
  0
CIRCLE
  5
4CBD8
330
2
100
AcDbEntity
  8
0
  6
Continuous
 62
     7
100
AcDbCircle
 10
161.3224610553323
 20
103.9911401755919
 30
0.0
 40
0.8
  0
LINE
  5
4CC1C
330
2
100
AcDbEntity
  8
0
  6
Continuous
100
AcDbLine
 10
98.18010076482421
 20
76.87181720258087
 30
0.0
 11
99.29971600707922
 21
77.17181720257667
 31
0.0
  0
LINE
  5
4CC1D
330
2
100
AcDbEntity
  8
0
  6
Continuous
100
AcDbLine
 10
99.29971600707922
 20
77.17181720257667
 30
0.0
 11
99.29971600707922
 21
89.57181720257954
 31
0.0
  0
LINE
  5
4CC1E
330
2
100
AcDbEntity
  8
0
  6
Continuous
100
AcDbLine
 10
99.29971600707922
 20
101.9718172025825
 30
0.0
 11
99.78010076482423
 21
101.9718172025826
 31
0.0
1001
ACAD
1000
ASC_BOUNDS
1002
{
1070
    19
1005
0
1005
0
1005
0
1002
}
  0
ARC
  5
4CC1F
330
2
100
AcDbEntity
  8
0
  6
Continuous
100
AcDbCircle
 10
99.78010076482423
 20
102.3718172025826
 30
0.0
 40
0.4
100
AcDbArc
 50
270.0000000000098
 51
0.0
  0
LINE
  5
4CC20
330
2
100
AcDbEntity
  8
0
  6
Continuous
100
AcDbLine
 10
98.18010076482421
 20
102.2718172025783
 30
0.0
 11
99.29971600707922
 21
101.9718172025825
 31
0.0
  0
LINE
  5
4CC24
330
2
100
AcDbEntity
  8
0
  6
CENTER2
 62
     3
100
AcDbLine
 10
109.6801007648242
 20
73.12181720257723
 30
0.0
 11
98.18010076482432
 21
73.12181720257723
 31
0.0
  0
ARC
  5
4CC25
330
2
100
AcDbEntity
  8
0
  6
Continuous
 62
     3
100
AcDbCircle
 10
177.972461055334
 20
75.1524942295672
 30
0.0
 40
1.0
100
AcDbArc
 50
83.53709056715439
 51
342.9700963829982
  0
CIRCLE
  5
4CC26
330
2
100
AcDbEntity
  8
0
  6
Continuous
 62
     7
100
AcDbCircle
 10
177.972461055334
 20
75.1524942295672
 30
0.0
 40
0.8
  0
LINE
  5
4CC27
330
2
100
AcDbEntity
  8
0
  6
Continuous
 62
     3
100
AcDbLine
 10
170.1474610553331
 20
88.70579179879513
 30
0.0
 11
180.0224610553332
 21
71.60179007405253
 31
0.0
  0
LINE
  5
4CC28
330
2
100
AcDbEntity
  8
0
  6
Continuous
 62
     3
100
AcDbLine
 10
169.1474610553331
 20
90.43784260636408
 30
0.0
 11
159.2724610553331
 21
107.5418443311067
 31
0.0
  0
LINE
  5
4CC29
330
2
100
AcDbEntity
  8
0
  6
Continuous
 62
     3
100
AcDbLine
 10
169.1474610553331
 20
89.57181720257954
 30
0.0
 11
170.1474610553331
 21
89.57181720257954
 31
0.0
  0
LINE
  5
4CC2A
330
2
100
AcDbEntity
  8
0
  6
Continuous
 62
     3
100
AcDbLine
 10
169.6474610553331
 20
89.07181720257955
 30
0.0
 11
169.6474610553331
 21
90.07181720257955
 31
0.0
  0
LINE
  5
4CC2B
330
2
100
AcDbEntity
  8
0
  6
Continuous
 62
     3
100
AcDbLine
 10
168.6474610553331
 20
89.57181720257954
 30
0.0
 11
148.8974610553331
 21
89.57181720257954
 31
0.0
  0
LINE
  5
4CC2C
330
2
100
AcDbEntity
  8
0
  6
Continuous
 62
     3
100
AcDbLine
 10
170.6474610553331
 20
89.57181720257954
 30
0.0
 11
190.3974610553331
 21
89.57181720257954
 31
0.0
  0
LINE
  5
4CC2D
330
2
100
AcDbEntity
  8
0
  6
Continuous
 62
     3
100
AcDbLine
 10
169.6474610553331
 20
88.57181720257955
 30
0.0
 11
169.6474610553331
 21
68.82181720257955
 31
0.0
  0
LINE
  5
4CC2E
330
2
100
AcDbEntity
  8
0
  6
Continuous
 62
     3
100
AcDbLine
 10
169.6474610553331
 20
90.57181720257956
 30
0.0
 11
169.6474610553331
 21
110.3218172025795
 31
0.0
  0
INSERT
  5
4CC35
102
{ACAD_REACTORS
330
4CC5B
102
}
330
2
100
AcDbEntity
  8
0
100
AcDbBlockReference
  2
*U4
 10
-154.5992025187054
 20
-53.54320978396462
 30
0.0
  0
CIRCLE
  5
4CC36
330
2
100
AcDbEntity
  8
0
100
AcDbCircle
 10
169.6474610553331
 20
89.57181720257954
 30
0.0
 40
20.5
  0
LINE
  5
4CC37
330
2
100
AcDbEntity
  8
0
  6
Continuous
 62
     7
100
AcDbLine
 10
82.29142563022918
 20
92.07181720257944
 30
0.0
 11
82.29142563022918
 21
89.57181720257953
 31
0.0
  0
LINE
  5
4CC38
330
2
100
AcDbEntity
  8
0
  6
ByBlock
 62
     0
100
AcDbLine
 10
82.29142563022918
 20
92.07181720257944
 30
0.0
 11
107.1801007648043
 21
92.07181720257961
 31
0.0
  0
LINE
  5
4CC43
330
2
100
AcDbEntity
  8
0
  6
Continuous
100
AcDbLine
 10
107.1801007648042
 20
92.07181720257954
 30
0.0
 11
107.6801007648242
 21
92.36049233718455
 31
0.0
1001
ACAD
1000
ASC_BOUNDS
1002
{
1070
    19
1002
}
  0
LINE
  5
4CC44
330
2
100
AcDbEntity
  8
0
  6
Continuous
100
AcDbLine
 10
107.1801007648042
 20
92.07181720257953
 30
0.0
 11
107.1801007648042
 21
89.57181720258228
 31
0.0
1001
ACAD
1000
ASC_BOUNDS
1002
{
1070
    19
1002
}
  0
CIRCLE
  5
4CC45
330
2
100
AcDbEntity
  8
0
100
AcDbCircle
 10
169.6474610553331
 20
89.57181720257954
 30
0.0
 40
2.5
  0
ENDSEC
  0
SECTION
  2
OBJECTS
  0
DICTIONARY
  5
B
330
0
100
AcDbDictionary
281
     1
  3
ACAD_ASSOCNETWORK
350
4BEA5
  3
ACAD_CIP_PREVIOUS_PRODUCT_INFO
350
BE4
  3
ACAD_COLOR
350
3F
  3
ACAD_DETAILVIEWSTYLE
350
BDC
  3
ACAD_GROUP
350
3A
  3
ACAD_LAYOUT
350
17
  3
ACAD_MATERIAL
350
D
  3
ACAD_MLEADERSTYLE
350
42
  3
ACAD_MLINESTYLE
350
3B
  3
ACAD_PLOTSETTINGS
350
3C
  3
ACAD_PLOTSTYLENAME
350
A
  3
ACAD_SCALELIST
350
40
  3
ACAD_SECTIONVIEWSTYLE
350
BDA
  3
ACAD_TABLESTYLE
350
41
  3
ACAD_VISUALSTYLE
350
2F
  3
ACDB_RECOMPOSE_DATA
350
4CEA6
  3
AcDbVariableDictionary
350
BB8
  3
AEC_PROPERTY_SET_DEFS
350
24C9
  0
DICTIONARY
  5
31
330
2C
100
AcDbDictionary
280
     1
281
     1
  0
DICTIONARY
  5
22
330
21
100
AcDbDictionary
280
     1
281
     1
  3
ACAD_LAYERSTATES
360
23
  0
DICTIONARY
  5
7
330
6
100
AcDbDictionary
280
     1
281
     1
  3
ADSK_XREC_LAYER_RECONCILED
360
8
  0
DICTIONARY
  5
3
330
2
100
AcDbDictionary
280
     1
281
     1
  3
ACAD_ASSOCNETWORK
360
4C1A5
  3
ACAD_SORTENTS
360
BB0
  0
DICTIONARY
  5
4CC4E
330
4CC4D
100
AcDbDictionary
280
     1
281
     1
  0
DICTIONARY
  5
4BEA5
102
{ACAD_REACTORS
330
B
102
}
330
B
100
AcDbDictionary
281
     1
  3
ACAD_ASSOCNETWORK
350
4BEA6
  0
XRECORD
  5
BE4
102
{ACAD_REACTORS
330
B
102
}
330
B
100
AcDbXrecord
280
     1
300
ACD
300
2014
300
ACD_F_S
  0
DICTIONARY
  5
3F
102
{ACAD_REACTORS
330
B
102
}
330
B
100
AcDbDictionary
281
     1
  0
DICTIONARY
  5
BDC
102
{ACAD_REACTORS
330
B
102
}
330
B
100
AcDbDictionary
281
     1
  3
Imperial24
350
283CD
  3
Metric50
350
BDD
  0
DICTIONARY
  5
3A
102
{ACAD_REACTORS
330
B
102
}
330
B
100
AcDbDictionary
281
     1
  0
DICTIONARY
  5
17
102
{ACAD_REACTORS
330
B
102
}
330
B
100
AcDbDictionary
281
     1
  3
Model
350
16
  3
배치1
350
1E
  0
DICTIONARY
  5
D
102
{ACAD_REACTORS
330
B
102
}
330
B
100
AcDbDictionary
281
     1
  3
ByBlock
350
3E
  3
ByLayer
350
3D
  3
Global
350
C
  0
DICTIONARY
  5
42
102
{ACAD_REACTORS
330
B
102
}
330
B
100
AcDbDictionary
281
     1
  3
Standard
350
BD9
  0
DICTIONARY
  5
3B
102
{ACAD_REACTORS
330
B
102
}
330
B
100
AcDbDictionary
281
     1
  3
Standard
350
43
  0
DICTIONARY
  5
3C
102
{ACAD_REACTORS
330
B
102
}
330
B
100
AcDbDictionary
281
     1
  0
ACDBDICTIONARYWDFLT
  5
A
102
{ACAD_REACTORS
330
B
102
}
330
B
100
AcDbDictionary
281
     1
  3
Normal
350
9
100
AcDbDictionaryWithDefault
340
9
  0
DICTIONARY
  5
40
102
{ACAD_REACTORS
330
B
102
}
330
B
100
AcDbDictionary
281
     1
  3
A0
350
48
  3
A1
350
49
  3
A2
350
4A
  3
A3
350
4B
  3
A4
350
4C
  3
A5
350
4D
  3
A6
350
4E
  3
A7
350
4F
  3
A8
350
50
  3
A9
350
51
  3
B0
350
52
  3
B1
350
53
  3
B2
350
54
  3
B3
350
55
  3
B4
350
56
  3
B5
350
57
  3
B6
350
58
  0
DICTIONARY
  5
BDA
102
{ACAD_REACTORS
330
B
102
}
330
B
100
AcDbDictionary
281
     1
  3
Imperial24
350
283CC
  3
Metric50
350
BDB
  0
DICTIONARY
  5
41
102
{ACAD_REACTORS
330
B
102
}
330
B
100
AcDbDictionary
281
     1
  3
Standard
350
44
  0
DICTIONARY
  5
2F
102
{ACAD_REACTORS
330
B
102
}
330
B
100
AcDbDictionary
281
     1
  3
2dWireframe
350
2E
  3
3D Hidden
350
1A64
  3
3dWireframe
350
47
  3
Basic
350
BC7
  3
Brighten
350
BCC
  3
ColorChange
350
BD0
  3
Conceptual
350
BCA
  3
Dim
350
BCB
  3
EdgeColorOff
350
BD8
  3
Facepattern
350
BCF
  3
Flat
350
BC3
  3
FlatWithEdges
350
BC4
  3
Gouraud
350
BC5
  3
GouraudWithEdges
350
BC6
  3
Hidden
350
BC9
  3
JitterOff
350
BD6
  3
Linepattern
350
BCE
  3
OverhangOff
350
BD7
  3
Realistic
350
46
  3
Shaded
350
BD5
  3
Shaded with edges
350
BD4
  3
Shades of Gray
350
BD1
  3
Sketchy
350
BD2
  3
Thicken
350
BCD
  3
Wireframe
350
BC8
  3
X-Ray
350
BD3
  0
XRECORD
  5
4CEA6
102
{ACAD_REACTORS
330
B
102
}
330
B
100
AcDbXrecord
280
     1
 90
        1
330
44
330
BDB
330
BDD
330
283CC
330
283CD
  0
DICTIONARY
  5
BB8
102
{ACAD_REACTORS
330
B
102
}
330
B
100
AcDbDictionary
281
     1
  3
CANNOSCALE
350
BBE
  3
CMLEADERSTYLE
350
BBA
  3
CTABLESTYLE
350
BB9
  3
CVIEWDETAILSTYLE
350
BBB
  3
CVIEWSECTIONSTYLE
350
BBC
  3
DIMASSOC
350
C3B
  3
HIDETEXT
350
C39
  3
HPCOLOR
350
FF3
  3
INDEXCTL
350
C38
  3
LAYEREVAL
350
BC0
  3
LAYERNOTIFY
350
BC1
  3
LIGHTINGUNITS
350
BBF
  3
MSLTSCALE
350
BBD
  3
SOLIDHIST
350
C3C
  3
SORTENTS
350
C37
  0
DICTIONARY
  5
24C9
102
{ACAD_REACTORS
330
B
102
}
330
B
100
AcDbDictionary
281
     1
  0
DICTIONARY
  5
23
102
{ACAD_REACTORS
330
22
102
}
330
22
100
AcDbDictionary
281
     1
  0
XRECORD
  5
8
102
{ACAD_REACTORS
330
7
102
}
330
7
100
AcDbXrecord
280
     1
290
     1
  0
DICTIONARY
  5
4C1A5
102
{ACAD_REACTORS
330
3
102
}
330
3
100
AcDbDictionary
281
     1
  3
ACAD_ASSOCNETWORK
350
4C1A6
  0
SORTENTSTABLE
  5
BB0
102
{ACAD_REACTORS
330
3
102
}
330
3
100
AcDbSortentsTable
330
2
331
3D881
  5
3D881
331
3D827
  5
3D827
331
3D84E
  5
3D84E
331
3D87B
  5
3D87B
331
3D854
  5
3D854
331
3D856
  5
3D856
331
3D87D
  5
3D87D
331
3D829
  5
3D829
331
3D831
  5
3D831
331
3D82B
  5
3D82B
331
3D87F
  5
3D87F
331
3D858
  5
3D858
331
3D833
  5
3D833
331
3D85A
  5
3D85A
331
3D82D
  5
3D82D
331
3D887
  5
3D888
331
3D860
  5
3D860
331
3D862
  5
3D862
331
3D889
  5
3D88A
331
3D82F
  5
3D82F
331
3D85C
  5
3D85C
331
3D835
  5
3D835
331
3D837
  5
3D837
331
3D85E
  5
3D85E
331
3D88B
  5
3D88C
331
3D864
  5
3D864
331
3D866
  5
3D866
331
3D88D
  5
3D88E
331
3D839
  5
3D839
331
3FE03
  5
3FE03
331
3D83B
  5
3D83B
331
3D868
  5
3D868
331
3D841
  5
3D841
331
3D870
  5
3D870
331
3D86A
  5
3D86A
331
3D83D
  5
3D83D
331
3D843
  5
3D843
331
3D872
  5
3D872
331
3D845
  5
3D845
331
3D83F
  5
3D83F
331
3D86C
  5
3D86C
331
3D874
  5
3D874
331
3D86E
  5
3D86E
331
3D847
  5
3D847
331
3D876
  5
3D876
331
3D849
  5
3D849
331
3D851
  5
3D851
331
3D878
  5
3D878
331
3D84B
  5
3D84B
331
3D824
  5
3D824
331
3D880
  5
3D880
331
3D87A
  5
3D87A
331
3D84D
  5
3D84D
331
3D826
  5
3D826
331
3D853
  5
3D853
331
3D855
  5
3D855
331
3D87C
  5
3D87C
331
3D84F
  5
3D84F
331
3D828
  5
3D828
331
3D882
  5
3D882
331
3D830
  5
3D830
331
3D87E
  5
3D87E
331
3D82A
  5
3D82A
331
3D857
  5
3D857
331
3D832
  5
3D832
331
3D859
  5
3D859
331
3D82C
  5
3D82C
331
3D886
  5
3D887
331
3D861
  5
3D861
331
3D888
  5
3D889
331
3D82E
  5
3D82E
331
3D85B
  5
3D85B
331
3D834
  5
3D834
331
3D836
  5
3D836
331
3D85D
  5
3D85D
331
3D88A
  5
3D88B
331
3D863
  5
3D863
331
3D865
  5
3D865
331
3D88C
  5
3D88D
331
3D85F
  5
3D85F
331
3D838
  5
3D838
331
3FE04
  5
3FE04
331
3D83A
  5
3D83A
331
3D867
  5
3D867
331
3D840
  5
3D840
331
3D842
  5
3D842
331
3D869
  5
3D869
331
3D83C
  5
3D83C
331
3D871
  5
3D871
331
3D844
  5
3D844
331
3D83E
  5
3D83E
331
3D86B
  5
3D86B
331
3D846
  5
3D846
331
3D86D
  5
3D86D
331
3D873
  5
3D873
331
3D875
  5
3D875
331
3D848
  5
3D848
331
3D86F
  5
3D86F
331
3D850
  5
3D850
331
3D84A
  5
3D84A
331
3D877
  5
3D877
331
3D852
  5
3D852
331
3D879
  5
3D879
331
3D84C
  5
3D84C
331
3D825
  5
3D825
  0
ACDBASSOCNETWORK
  5
4BEA6
102
{ACAD_REACTORS
330
4BEA5
102
}
330
4BEA5
100
AcDbAssocAction
 90
        2
 90
        0
330
0
360
0
 90
        0
 90
        0
 90
        0
 90
        0
 90
        0
 90
        0
 90
        0
100
AcDbAssocNetwork
 90
        0
 90
        4
 90
        1
330
4C1A6
 90
        0
  0
ACDBDETAILVIEWSTYLE
  5
283CD
102
{ACAD_XDICTIONARY
360
4CEA4
102
}
102
{ACAD_REACTORS
330
BDC
102
}
330
BDC
100
AcDbModelDocViewStyle
 70
     0
  3
Imperial24
290
     0
100
AcDbDetailViewStyle
 70
     0
 71
     0
 90
        3
 71
     1
340
25
 62
   256
 40
0.24
340
0
 62
   256
 40
0.24
300

 40
0.36
280
     3
 71
     2
340
14
 90
       25
 62
   256
 71
     3
340
25
 62
   256
 40
0.24
 90
        1
 40
0.75
 90
        1
300
%<\AcVar ViewType \f "%tc1">% %<\AcVar ViewDetailId>%\PSCALE %<\AcVar ViewScale \f "%sn">%
 71
     4
340
14
 90
       25
 62
   256
340
14
 90
       25
 62
   256
280
     0
  0
ACDBDETAILVIEWSTYLE
  5
BDD
102
{ACAD_XDICTIONARY
360
4CEA0
102
}
102
{ACAD_REACTORS
330
BDC
102
}
330
BDC
100
AcDbModelDocViewStyle
 70
     0
  3
Metric50
290
     0
100
AcDbDetailViewStyle
 70
     0
 71
     0
 90
        3
 71
     1
340
25
 62
   256
 40
5.0
340
0
 62
   256
 40
5.0
300

 40
0.0
280
     1
 71
     2
340
14
 90
       25
 62
   256
 71
     3
340
25
 62
   256
 40
5.0
 90
        0
 40
15.0
 90
        1
300
%<\AcVar ViewDetailId>% (%<\AcVar ViewScale \f "%sn">%)
 71
     4
340
14
 90
       25
 62
   256
340
14
 90
       25
 62
   256
280
     0
  0
LAYOUT
  5
16
102
{ACAD_XDICTIONARY
360
18
102
}
102
{ACAD_REACTORS
330
17
102
}
330
17
100
AcDbPlotSettings
  1

  2
DWG To PDF.pc3
  4
ISO_expand_A4_(297.00_x_210.00_MM)
  6

 40
5.793749809265136
 41
10.79374980926513
 42
5.79376220703125
 43
10.79374694824219
 44
297.0
 45
210.0
 46
10.74179700476176
 47
0.0
 48
214.2303289092835
 49
-5.650030662565313
140
426.8811481846322
141
146.1562857013982
142
1.0
143
0.8057125389846563
 70
 11956
 72
     1
 73
     0
 74
     4
  7
ksm0910.ctb
 75
     0
147
1.241137442468229
 76
     0
 77
     2
 78
   300
148
-214.2303289092835
149
5.650030662565313
100
AcDbLayout
  1
Model
 70
     1
 71
     0
 10
0.0
 20
0.0
 11
12.0
 21
9.0
 12
0.0
 22
0.0
 32
0.0
 14
0.0
 24
0.0
 34
0.0
 15
0.0
 25
0.0
 35
0.0
146
0.0
 13
0.0
 23
0.0
 33
0.0
 16
1.0
 26
0.0
 36
0.0
 17
0.0
 27
1.0
 37
0.0
 76
     0
330
2
331
2D
1001
ACAD_PSEXT
1000
DWG To PDF.pc3
1000
DWG To PDF
1000
파일
1000

1070
     0
  0
LAYOUT
  5
1E
102
{ACAD_XDICTIONARY
360
1F
102
}
102
{ACAD_REACTORS
330
17
102
}
330
17
100
AcDbPlotSettings
  1

  2
none_device
  4
ISO_A4_(210.00_x_297.00_MM)
  6

 40
7.5
 41
20.0
 42
7.5
 43
20.0
 44
210.0
 45
297.0
 46
0.0
 47
0.0
 48
0.0
 49
0.0
140
0.0
141
0.0
142
1.0
143
1.0
 70
   688
 72
     1
 73
     1
 74
     5
  7
ksm0910.ctb
 75
    16
147
1.0
 76
     0
 77
     2
 78
   300
148
0.0
149
0.0
100
AcDbLayout
  1
배치1
 70
     1
 71
     1
 10
-20.0
 20
-7.5
 11
277.0
 21
202.5
 12
0.0
 22
0.0
 32
0.0
 14
1.000000000000000E+20
 24
1.000000000000000E+20
 34
1.000000000000000E+20
 15
-1.000000000000000E+20
 25
-1.000000000000000E+20
 35
-1.000000000000000E+20
146
0.0
 13
0.0
 23
0.0
 33
0.0
 16
1.0
 26
0.0
 36
0.0
 17
0.0
 27
1.0
 37
0.0
 76
     0
330
1B
1001
ACAD_PSEXT
1000
없음
1000
없음
1000
해당 없음
1000
배치가 새로운 플로터 구성을 선택할 때까지 플롯되지 않습니다.
1070
     0
  0
MATERIAL
  5
3E
102
{ACAD_REACTORS
330
D
102
}
330
D
100
AcDbMaterial
  1
ByBlock
 94
       63
  0
MATERIAL
  5
3D
102
{ACAD_REACTORS
330
D
102
}
330
D
100
AcDbMaterial
  1
ByLayer
 94
       63
  0
MATERIAL
  5
C
102
{ACAD_XDICTIONARY
360
E
102
}
102
{ACAD_REACTORS
330
D
102
}
330
D
100
AcDbMaterial
  1
Global
 43
0.0007999999797903
 43
0.0
 43
0.0
 43
0.0
 43
0.0
 43
0.0007999999797903
 43
0.0
 43
0.0
 43
0.0
 43
0.0
 43
1.0
 43
0.0
 43
0.0
 43
0.0
 43
0.0
 43
1.0
 49
0.0007999999797903
 49
0.0
 49
0.0
 49
0.0
 49
0.0
 49
0.0007999999797903
 49
0.0
 49
0.0
 49
0.0
 49
0.0
 49
1.0
 49
0.0
 49
0.0
 49
0.0
 49
0.0
 49
1.0
142
0.0007999999797903
142
0.0
142
0.0
142
0.0
142
0.0
142
0.0007999999797903
142
0.0
142
0.0
142
0.0
142
0.0
142
1.0
142
0.0
142
0.0
142
0.0
142
0.0
142
1.0
144
0.0007999999797903
144
0.0
144
0.0
144
0.0
144
0.0
144
0.0007999999797903
144
0.0
144
0.0
144
0.0
144
0.0
144
1.0
144
0.0
144
0.0
144
0.0
144
0.0
144
1.0
 94
       63
1001
ACAD
1070
    -1
1070
     3
1070
     0
1000

1071
        0
1070
     0
  0
MLEADERSTYLE
  5
BD9
102
{ACAD_REACTORS
330
42
102
}
330
42
100
AcDbMLeaderStyle
179
     2
170
     2
171
     1
172
     0
 90
        2
 40
0.0
 41
0.0
173
     1
 91
-1023410173
340
28
 92
       -2
290
     1
 42
2.0
291
     1
 43
0.36
  3
Standard
 44
4.0
300

342
25
174
     1
178
     6
175
     1
176
     0
 93
-1023410174
 45
3.0
292
     0
297
     0
 46
4.0
 94
-1056964608
 47
1.0
 49
1.0
140
1.0
293
     1
141
0.0
294
     1
177
     0
142
1.0
295
     0
296
     0
143
0.125
271
     0
272
     9
273
     9
298
     1
  0
MLINESTYLE
  5
43
102
{ACAD_REACTORS
330
3B
102
}
330
3B
100
AcDbMlineStyle
  2
STANDARD
 70
     0
  3

 62
   256
 51
90.0
 52
90.0
 71
     2
 49
0.5
 62
   256
  6
BYLAYER
 49
-0.5
 62
   256
  6
BYLAYER
  0
ACDBPLACEHOLDER
  5
9
102
{ACAD_REACTORS
330
A
102
}
330
A
  0
SCALE
  5
48
102
{ACAD_REACTORS
330
40
102
}
330
40
100
AcDbScale
 70
     0
300
1:1
140
1.0
141
1.0
290
     1
  0
SCALE
  5
49
102
{ACAD_REACTORS
330
40
102
}
330
40
100
AcDbScale
 70
     0
300
1:2
140
1.0
141
2.0
290
     0
  0
SCALE
  5
4A
102
{ACAD_REACTORS
330
40
102
}
330
40
100
AcDbScale
 70
     0
300
1:4
140
1.0
141
4.0
290
     0
  0
SCALE
  5
4B
102
{ACAD_REACTORS
330
40
102
}
330
40
100
AcDbScale
 70
     0
300
1:5
140
1.0
141
5.0
290
     0
  0
SCALE
  5
4C
102
{ACAD_REACTORS
330
40
102
}
330
40
100
AcDbScale
 70
     0
300
1:8
140
1.0
141
8.0
290
     0
  0
SCALE
  5
4D
102
{ACAD_REACTORS
330
40
102
}
330
40
100
AcDbScale
 70
     0
300
1:10
140
1.0
141
10.0
290
     0
  0
SCALE
  5
4E
102
{ACAD_REACTORS
330
40
102
}
330
40
100
AcDbScale
 70
     0
300
1:16
140
1.0
141
16.0
290
     0
  0
SCALE
  5
4F
102
{ACAD_REACTORS
330
40
102
}
330
40
100
AcDbScale
 70
     0
300
1:20
140
1.0
141
20.0
290
     0
  0
SCALE
  5
50
102
{ACAD_REACTORS
330
40
102
}
330
40
100
AcDbScale
 70
     0
300
1:30
140
1.0
141
30.0
290
     0
  0
SCALE
  5
51
102
{ACAD_REACTORS
330
40
102
}
330
40
100
AcDbScale
 70
     0
300
1:40
140
1.0
141
40.0
290
     0
  0
SCALE
  5
52
102
{ACAD_REACTORS
330
40
102
}
330
40
100
AcDbScale
 70
     0
300
1:50
140
1.0
141
50.0
290
     0
  0
SCALE
  5
53
102
{ACAD_REACTORS
330
40
102
}
330
40
100
AcDbScale
 70
     0
300
1:100
140
1.0
141
100.0
290
     0
  0
SCALE
  5
54
102
{ACAD_REACTORS
330
40
102
}
330
40
100
AcDbScale
 70
     0
300
2:1
140
2.0
141
1.0
290
     0
  0
SCALE
  5
55
102
{ACAD_REACTORS
330
40
102
}
330
40
100
AcDbScale
 70
     0
300
4:1
140
4.0
141
1.0
290
     0
  0
SCALE
  5
56
102
{ACAD_REACTORS
330
40
102
}
330
40
100
AcDbScale
 70
     0
300
8:1
140
8.0
141
1.0
290
     0
  0
SCALE
  5
57
102
{ACAD_REACTORS
330
40
102
}
330
40
100
AcDbScale
 70
     0
300
10:1
140
10.0
141
1.0
290
     0
  0
SCALE
  5
58
102
{ACAD_REACTORS
330
40
102
}
330
40
100
AcDbScale
 70
     0
300
100:1
140
100.0
141
1.0
290
     0
  0
ACDBSECTIONVIEWSTYLE
  5
283CC
102
{ACAD_XDICTIONARY
360
4CEA2
102
}
102
{ACAD_REACTORS
330
BDA
102
}
330
BDA
100
AcDbModelDocViewStyle
 70
     0
  3
Imperial24
290
     0
100
AcDbSectionViewStyle
 70
     0
 71
     0
 90
       78
 71
     1
340
25
 62
   256
 40
0.24
340
0
340
0
 62
   256
 40
0.24
300
I, O, Q, S, X, Z
 40
0.48
 90
        3
 40
0.18
 90
        1
 71
     2
340
14
 90
       25
 62
   256
340
14
 90
       50
 62
   256
 40
0.24
 40
0.0
 40
0.24
 71
     3
340
25
 62
   256
 40
0.24
 90
        1
 40
0.75
 90
        1
300
%<\AcVar ViewType \f "%tc1">% %<\AcVar ViewSectionStartId>%-%<\AcVar ViewSectionEndId>%\PSCALE %<\AcVar ViewScale \f "%sn">%
 71
     4
 62
   256
 62
   257
300
ANSI31
 40
1.0
 90
        0
290
     0
290
     0
 90
        6
 40
0.0
 40
1.570796326794896
 40
0.2617993877991494
 40
1.308996938995747
 40
-0.2617993877991494
 40
1.832595714594046
  0
ACDBSECTIONVIEWSTYLE
  5
BDB
102
{ACAD_XDICTIONARY
360
4CE9E
102
}
102
{ACAD_REACTORS
330
BDA
102
}
330
BDA
100
AcDbModelDocViewStyle
 70
     0
  3
Metric50
290
     0
100
AcDbSectionViewStyle
 70
     0
 71
     0
 90
      102
 71
     1
340
25
 62
   256
 40
5.0
340
0
340
0
 62
   256
 40
5.0
300
I, O, Q, S, X, Z
 40
10.0
 90
        0
 40
2.5
 90
        0
 71
     2
340
14
 90
       25
 62
   256
340
14
 90
       50
 62
   256
 40
5.0
 40
2.5
 40
5.0
 71
     3
340
25
 62
   256
 40
5.0
 90
        0
 40
15.0
 90
        1
300
%<\AcVar ViewSectionStartId>%-%<\AcVar ViewSectionEndId>% (%<\AcVar ViewScale \f "%sn">%)
 71
     4
 62
   256
 62
   257
300
ANSI31
 40
1.0
 90
        0
290
     0
290
     0
 90
        6
 40
0.0
 40
1.570796326794896
 40
0.2617993877991494
 40
1.308996938995747
 40
-0.2617993877991494
 40
1.832595714594046
  0
TABLESTYLE
  5
44
102
{ACAD_XDICTIONARY
360
45
102
}
102
{ACAD_REACTORS
330
41
102
}
330
41
100
AcDbTableStyle
280
     0
  3
Standard
 70
     0
 71
     0
 40
1.5
 41
1.5
280
     0
281
     0
  7
Standard
140
4.5
170
     2
 62
     0
 63
     7
283
     0
 90
      512
 91
        0
  1

274
    -2
284
     1
 64
     0
275
    -2
285
     1
 65
     0
276
    -2
286
     1
 66
     0
277
    -2
287
     1
 67
     0
278
    -2
288
     1
 68
     0
279
    -2
289
     1
 69
     0
  7
Standard
140
6.0
170
     5
 62
     0
 63
     7
283
     0
 90
      512
 91
        0
  1

274
    -2
284
     1
 64
     0
275
    -2
285
     1
 65
     0
276
    -2
286
     1
 66
     0
277
    -2
287
     1
 67
     0
278
    -2
288
     1
 68
     0
279
    -2
289
     1
 69
     0
  7
Standard
140
4.5
170
     5
 62
     0
 63
     7
283
     0
 90
      512
 91
        0
  1

274
    -2
284
     1
 64
     0
275
    -2
285
     1
 65
     0
276
    -2
286
     1
 66
     0
277
    -2
287
     1
 67
     0
278
    -2
288
     1
 68
     0
279
    -2
289
     1
 69
     0
  0
VISUALSTYLE
  5
2E
102
{ACAD_REACTORS
330
2F
102
}
330
2F
100
AcDbVisualStyle
  2
2dWireframe
 70
     4
177
     3
291
     0
 70
    58
 90
        0
176
     1
 90
        2
176
     1
 90
        1
176
     1
 90
        0
176
     1
 40
0.6
176
     1
 40
30.0
176
     1
 62
     7
176
     1
 90
        1
176
     1
 90
        4
176
     1
 62
     7
176
     1
 62
   257
176
     1
 90
        1
176
     1
 90
        1
176
     1
 40
1.0
176
     1
 90
        0
176
     1
 62
   257
176
     1
 40
1.0
176
     1
 90
        1
176
     1
 90
        6
176
     1
 90
        2
176
     1
 62
     7
176
     1
 90
        5
176
     1
 90
        0
176
     1
 90
        0
176
     1
290
     0
176
     1
 90
        1
176
     1
 40
0.0
176
     1
 90
        0
176
     1
290
     1
176
     1
290
     1
176
     1
290
     0
176
     1
290
     0
176
     1
290
     0
176
     1
290
     0
176
     1
290
     0
176
     1
290
     0
176
     1
290
     0
176
     1
 90
       50
176
     1
 40
0.0
176
     1
 40
1.0
176
     1
 90
        0
176
     1
 62
    18
420
        0
176
     1
 90
       50
176
     1
 90
        3
176
     1
 62
     5
420
      255
176
     1
290
     0
176
     1
 90
       50
176
     1
 90
       50
176
     1
 90
       50
176
     1
290
     0
176
     1
 90
       50
176
     1
 62
   256
176
     0
 40
1.0
176
     0
 90
        2
176
     1
  1
strokes_ogs.tif
176
     1
290
     0
176
     1
 40
1.0
176
     1
 40
1.0
176
     1
  0
VISUALSTYLE
  5
1A64
102
{ACAD_REACTORS
330
2F
102
}
330
2F
100
AcDbVisualStyle
  2
3D Hidden
 70
     6
177
     3
291
     0
 70
    58
 90
        1
176
     1
 90
        2
176
     1
 90
        2
176
     1
 90
        0
176
     1
 40
0.6
176
     1
 40
30.0
176
     1
 62
     7
176
     1
 90
        2
176
     1
 90
        2
176
     1
 62
     7
176
     1
 62
   257
176
     1
 90
        2
176
     1
 90
        1
176
     1
 40
40.0
176
     1
 90
        0
176
     1
 62
   257
176
     1
 40
1.0
176
     1
 90
        1
176
     1
 90
        6
176
     1
 90
        2
176
     1
 62
     7
176
     1
 90
        3
176
     1
 90
        0
176
     1
 90
        0
176
     1
290
     0
176
     1
 90
        1
176
     1
 40
0.0
176
     1
 90
        0
176
     1
290
     0
176
     1
290
     1
176
     1
290
     1
176
     1
290
     0
176
     1
290
     0
176
     1
290
     0
176
     1
290
     0
176
     1
290
     0
176
     1
290
     0
176
     1
 90
       50
176
     1
 40
0.0
176
     1
 40
1.0
176
     1
 90
        0
176
     1
 62
    18
420
        0
176
     1
 90
       50
176
     1
 90
        3
176
     1
 62
     5
420
      255
176
     1
290
     0
176
     1
 90
       50
176
     1
 90
       50
176
     1
 90
       50
176
     1
290
     0
176
     1
 90
       50
176
     1
 62
   256
176
     0
 40
1.0
176
     0
 90
        2
176
     1
  1
strokes_ogs.tif
176
     1
290
     0
176
     1
 40
1.0
176
     1
 40
1.0
176
     1
  0
VISUALSTYLE
  5
47
102
{ACAD_REACTORS
330
2F
102
}
330
2F
100
AcDbVisualStyle
  2
3dWireframe
 70
     5
177
     3
291
     0
 70
    58
 90
        0
176
     1
 90
        2
176
     1
 90
        1
176
     1
 90
        0
176
     1
 40
0.6
176
     1
 40
30.0
176
     1
 62
     7
176
     1
 90
        1
176
     1
 90
        4
176
     1
 62
     7
176
     1
 62
   257
176
     1
 90
        1
176
     1
 90
        1
176
     1
 40
1.0
176
     1
 90
        0
176
     1
 62
   257
176
     1
 40
1.0
176
     1
 90
        1
176
     1
 90
        6
176
     1
 90
        2
176
     1
 62
     7
176
     1
 90
        5
176
     1
 90
        0
176
     1
 90
        0
176
     1
290
     0
176
     1
 90
        1
176
     1
 40
0.0
176
     1
 90
        0
176
     1
290
     0
176
     1
290
     1
176
     1
290
     1
176
     1
290
     0
176
     1
290
     0
176
     1
290
     0
176
     1
290
     0
176
     1
290
     0
176
     1
290
     0
176
     1
 90
       50
176
     1
 40
0.0
176
     1
 40
1.0
176
     1
 90
        0
176
     1
 62
    18
420
        0
176
     1
 90
       50
176
     1
 90
        3
176
     1
 62
     5
420
      255
176
     1
290
     0
176
     1
 90
       50
176
     1
 90
       50
176
     1
 90
       50
176
     1
290
     0
176
     1
 90
       50
176
     1
 62
   256
176
     0
 40
1.0
176
     0
 90
        2
176
     1
  1
strokes_ogs.tif
176
     1
290
     0
176
     1
 40
1.0
176
     1
 40
1.0
176
     1
  0
VISUALSTYLE
  5
BC7
102
{ACAD_REACTORS
330
2F
102
}
330
2F
100
AcDbVisualStyle
  2
Basic
 70
     7
177
     3
291
     1
 70
    58
 90
        1
176
     1
 90
        0
176
     1
 90
        1
176
     1
 90
        0
176
     1
 40
0.6
176
     1
 40
30.0
176
     1
 62
     7
176
     1
 90
        0
176
     1
 90
        4
176
     1
 62
     7
176
     1
 62
   257
176
     1
 90
        1
176
     1
 90
        1
176
     1
 40
1.0
176
     1
 90
        8
176
     1
 62
     7
176
     1
 40
1.0
176
     1
 90
        1
176
     1
 90
        6
176
     1
 90
        2
176
     1
 62
     7
176
     1
 90
        5
176
     1
 90
        0
176
     1
 90
        0
176
     1
290
     0
176
     1
 90
        1
176
     1
 40
0.0
176
     1
 90
        0
176
     1
290
     0
176
     1
290
     1
176
     1
290
     1
176
     1
290
     0
176
     1
290
     0
176
     1
290
     0
176
     1
290
     0
176
     1
290
     0
176
     1
290
     0
176
     1
 90
       50
176
     1
 40
0.0
176
     1
 40
1.0
176
     1
 90
        0
176
     1
 62
    18
420
        0
176
     1
 90
       50
176
     1
 90
        3
176
     1
 62
     5
420
      255
176
     1
290
     0
176
     1
 90
       50
176
     1
 90
       50
176
     1
 90
       50
176
     1
290
     0
176
     1
 90
       50
176
     1
 62
   256
176
     0
 40
1.0
176
     0
 90
        2
176
     1
  1
strokes_ogs.tif
176
     1
290
     0
176
     1
 40
1.0
176
     1
 40
1.0
176
     1
  0
VISUALSTYLE
  5
BCC
102
{ACAD_REACTORS
330
2F
102
}
330
2F
100
AcDbVisualStyle
  2
Brighten
 70
    12
177
     3
291
     1
 70
    58
 90
        2
176
     1
 90
        2
176
     1
 90
        0
176
     1
 90
        0
176
     1
 40
0.6
176
     1
 40
30.0
176
     1
 62
     7
176
     1
 90
        1
176
     1
 90
        4
176
     1
 62
     7
176
     1
 62
   257
176
     1
 90
        1
176
     1
 90
        1
176
     1
 40
1.0
176
     1
 90
        8
176
     1
 62
     7
176
     1
 40
1.0
176
     1
 90
        1
176
     1
 90
        6
176
     1
 90
        2
176
     1
 62
     7
176
     1
 90
        5
176
     1
 90
        0
176
     1
 90
        0
176
     1
290
     0
176
     1
 90
        1
176
     1
 40
50.0
176
     1
 90
        0
176
     1
290
     0
176
     1
290
     1
176
     1
290
     1
176
     1
290
     0
176
     1
290
     0
176
     1
290
     0
176
     1
290
     0
176
     1
290
     0
176
     1
290
     0
176
     1
 90
       50
176
     1
 40
0.0
176
     1
 40
1.0
176
     1
 90
        0
176
     1
 62
    18
420
        0
176
     1
 90
       50
176
     1
 90
        3
176
     1
 62
     5
420
      255
176
     1
290
     0
176
     1
 90
       50
176
     1
 90
       50
176
     1
 90
       50
176
     1
290
     0
176
     1
 90
       50
176
     1
 62
   256
176
     0
 40
1.0
176
     0
 90
        2
176
     1
  1
strokes_ogs.tif
176
     1
290
     0
176
     1
 40
1.0
176
     1
 40
1.0
176
     1
  0
VISUALSTYLE
  5
BD0
102
{ACAD_REACTORS
330
2F
102
}
330
2F
100
AcDbVisualStyle
  2
ColorChange
 70
    16
177
     3
291
     1
 70
    58
 90
        2
176
     1
 90
        2
176
     1
 90
        3
176
     1
 90
        0
176
     1
 40
0.6
176
     1
 40
30.0
176
     1
 62
     8
176
     1
 90
        1
176
     1
 90
        4
176
     1
 62
     7
176
     1
 62
   257
176
     1
 90
        1
176
     1
 90
        1
176
     1
 40
1.0
176
     1
 90
        8
176
     1
 62
     8
176
     1
 40
1.0
176
     1
 90
        1
176
     1
 90
        6
176
     1
 90
        2
176
     1
 62
     7
176
     1
 90
        5
176
     1
 90
        0
176
     1
 90
        0
176
     1
290
     0
176
     1
 90
        1
176
     1
 40
0.0
176
     1
 90
        0
176
     1
290
     0
176
     1
290
     1
176
     1
290
     1
176
     1
290
     0
176
     1
290
     0
176
     1
290
     0
176
     1
290
     0
176
     1
290
     0
176
     1
290
     0
176
     1
 90
       50
176
     1
 40
0.0
176
     1
 40
1.0
176
     1
 90
        0
176
     1
 62
    18
420
        0
176
     1
 90
       50
176
     1
 90
        3
176
     1
 62
     5
420
      255
176
     1
290
     0
176
     1
 90
       50
176
     1
 90
       50
176
     1
 90
       50
176
     1
290
     0
176
     1
 90
       50
176
     1
 62
   256
176
     0
 40
1.0
176
     0
 90
        2
176
     1
  1
strokes_ogs.tif
176
     1
290
     0
176
     1
 40
1.0
176
     1
 40
1.0
176
     1
  0
VISUALSTYLE
  5
BCA
102
{ACAD_REACTORS
330
2F
102
}
330
2F
100
AcDbVisualStyle
  2
Conceptual
 70
     9
177
     3
291
     0
 70
    58
 90
        3
176
     1
 90
        2
176
     1
 90
        0
176
     1
 90
        0
176
     1
 40
0.6
176
     1
 40
30.0
176
     1
 62
     7
176
     1
 90
        2
176
     1
 90
        2
176
     1
 62
     7
176
     1
 62
   257
176
     1
 90
        1
176
     1
 90
        1
176
     1
 40
179.0
176
     1
 90
        8
176
     1
 62
     7
176
     1
 40
1.0
176
     1
 90
        1
176
     1
 90
        6
176
     1
 90
        2
176
     1
 62
     7
176
     1
 90
        3
176
     1
 90
        0
176
     1
 90
        0
176
     1
290
     0
176
     1
 90
        1
176
     1
 40
0.0
176
     1
 90
        0
176
     1
290
     0
176
     1
290
     1
176
     1
290
     1
176
     1
290
     0
176
     1
290
     0
176
     1
290
     0
176
     1
290
     0
176
     1
290
     0
176
     1
290
     0
176
     1
 90
       50
176
     1
 40
0.0
176
     1
 40
1.0
176
     1
 90
        0
176
     1
 62
    18
420
        0
176
     1
 90
       50
176
     1
 90
        3
176
     1
 62
     5
420
      255
176
     1
290
     0
176
     1
 90
       50
176
     1
 90
       50
176
     1
 90
       50
176
     1
290
     0
176
     1
 90
       50
176
     1
 62
   256
176
     0
 40
1.0
176
     0
 90
        2
176
     1
  1
strokes_ogs.tif
176
     1
290
     0
176
     1
 40
1.0
176
     1
 40
1.0
176
     1
  0
VISUALSTYLE
  5
BCB
102
{ACAD_REACTORS
330
2F
102
}
330
2F
100
AcDbVisualStyle
  2
Dim
 70
    11
177
     3
291
     1
 70
    58
 90
        2
176
     1
 90
        2
176
     1
 90
        0
176
     1
 90
        0
176
     1
 40
0.6
176
     1
 40
30.0
176
     1
 62
     7
176
     1
 90
        1
176
     1
 90
        4
176
     1
 62
     7
176
     1
 62
   257
176
     1
 90
        1
176
     1
 90
        1
176
     1
 40
1.0
176
     1
 90
        8
176
     1
 62
     7
176
     1
 40
1.0
176
     1
 90
        1
176
     1
 90
        6
176
     1
 90
        2
176
     1
 62
     7
176
     1
 90
        5
176
     1
 90
        0
176
     1
 90
        0
176
     1
290
     0
176
     1
 90
        1
176
     1
 40
-50.0
176
     1
 90
        0
176
     1
290
     0
176
     1
290
     1
176
     1
290
     1
176
     1
290
     0
176
     1
290
     0
176
     1
290
     0
176
     1
290
     0
176
     1
290
     0
176
     1
290
     0
176
     1
 90
       50
176
     1
 40
0.0
176
     1
 40
1.0
176
     1
 90
        0
176
     1
 62
    18
420
        0
176
     1
 90
       50
176
     1
 90
        3
176
     1
 62
     5
420
      255
176
     1
290
     0
176
     1
 90
       50
176
     1
 90
       50
176
     1
 90
       50
176
     1
290
     0
176
     1
 90
       50
176
     1
 62
   256
176
     0
 40
1.0
176
     0
 90
        2
176
     1
  1
strokes_ogs.tif
176
     1
290
     0
176
     1
 40
1.0
176
     1
 40
1.0
176
     1
  0
VISUALSTYLE
  5
BD8
102
{ACAD_REACTORS
330
2F
102
}
330
2F
100
AcDbVisualStyle
  2
EdgeColorOff
 70
    22
177
     3
291
     1
 70
    58
 90
        2
176
     0
 90
        2
176
     0
 90
        0
176
     0
 90
        0
176
     0
 40
0.6
176
     0
 40
30.0
176
     0
 62
     7
176
     0
 90
        1
176
     0
 90
        4
176
     0
 62
     7
176
     0
 62
   257
176
     0
 90
        1
176
     0
 90
        1
176
     0
 40
1.0
176
     0
 90
        8
176
     2
 62
     7
176
     0
 40
1.0
176
     0
 90
        1
176
     0
 90
        6
176
     0
 90
        2
176
     0
 62
     7
176
     0
 90
        5
176
     0
 90
        0
176
     0
 90
        0
176
     0
290
     0
176
     0
 90
        1
176
     0
 40
0.0
176
     0
 90
        0
176
     0
290
     0
176
     0
290
     1
176
     0
290
     1
176
     0
290
     0
176
     0
290
     0
176
     0
290
     0
176
     0
290
     0
176
     0
290
     0
176
     0
290
     0
176
     0
 90
       50
176
     0
 40
0.0
176
     0
 40
1.0
176
     0
 90
        0
176
     0
 62
    18
420
        0
176
     0
 90
       50
176
     0
 90
        3
176
     0
 62
     5
420
      255
176
     0
290
     0
176
     0
 90
       50
176
     0
 90
       50
176
     0
 90
       50
176
     0
290
     0
176
     0
 90
       50
176
     0
 62
   256
176
     0
 40
1.0
176
     0
 90
        2
176
     0
  1
strokes_ogs.tif
176
     0
290
     0
176
     0
 40
1.0
176
     0
 40
1.0
176
     0
  0
VISUALSTYLE
  5
BCF
102
{ACAD_REACTORS
330
2F
102
}
330
2F
100
AcDbVisualStyle
  2
Facepattern
 70
    15
177
     3
291
     1
 70
    58
 90
        2
176
     1
 90
        2
176
     1
 90
        0
176
     1
 90
        0
176
     1
 40
0.6
176
     1
 40
30.0
176
     1
 62
     7
176
     1
 90
        1
176
     1
 90
        4
176
     1
 62
     7
176
     1
 62
   257
176
     1
 90
        1
176
     1
 90
        1
176
     1
 40
1.0
176
     1
 90
        8
176
     1
 62
     7
176
     1
 40
1.0
176
     1
 90
        1
176
     1
 90
        6
176
     1
 90
        2
176
     1
 62
     7
176
     1
 90
        5
176
     1
 90
        0
176
     1
 90
        0
176
     1
290
     0
176
     1
 90
        1
176
     1
 40
0.0
176
     1
 90
        0
176
     1
290
     0
176
     1
290
     1
176
     1
290
     1
176
     1
290
     0
176
     1
290
     0
176
     1
290
     0
176
     1
290
     0
176
     1
290
     0
176
     1
290
     0
176
     1
 90
       50
176
     1
 40
0.0
176
     1
 40
1.0
176
     1
 90
        0
176
     1
 62
    18
420
        0
176
     1
 90
       50
176
     1
 90
        3
176
     1
 62
     5
420
      255
176
     1
290
     0
176
     1
 90
       50
176
     1
 90
       50
176
     1
 90
       50
176
     1
290
     0
176
     1
 90
       50
176
     1
 62
   256
176
     0
 40
1.0
176
     0
 90
        2
176
     1
  1
strokes_ogs.tif
176
     1
290
     0
176
     1
 40
1.0
176
     1
 40
1.0
176
     1
  0
VISUALSTYLE
  5
BC3
102
{ACAD_REACTORS
330
2F
102
}
330
2F
100
AcDbVisualStyle
  2
Flat
 70
     0
177
     3
291
     1
 70
    58
 90
        2
176
     1
 90
        1
176
     1
 90
        1
176
     1
 90
        2
176
     1
 40
0.6
176
     1
 40
30.0
176
     1
 62
     7
176
     1
 90
        0
176
     1
 90
        0
176
     1
 62
     7
176
     1
 62
   257
176
     1
 90
        1
176
     1
 90
        1
176
     1
 40
1.0
176
     1
 90
        8
176
     1
 62
     7
176
     1
 40
1.0
176
     1
 90
        1
176
     1
 90
        6
176
     1
 90
        2
176
     1
 62
     7
176
     1
 90
        5
176
     1
 90
        0
176
     1
 90
        0
176
     1
290
     0
176
     1
 90
       13
176
     1
 40
0.0
176
     1
 90
        0
176
     1
290
     0
176
     1
290
     1
176
     1
290
     1
176
     1
290
     0
176
     1
290
     0
176
     1
290
     0
176
     1
290
     0
176
     1
290
     0
176
     1
290
     0
176
     1
 90
       50
176
     1
 40
0.0
176
     1
 40
1.0
176
     1
 90
        0
176
     1
 62
    18
420
        0
176
     1
 90
       50
176
     1
 90
        3
176
     1
 62
     5
420
      255
176
     1
290
     0
176
     1
 90
       50
176
     1
 90
       50
176
     1
 90
       50
176
     1
290
     0
176
     1
 90
       50
176
     1
 62
   256
176
     0
 40
1.0
176
     0
 90
        2
176
     1
  1
strokes_ogs.tif
176
     1
290
     0
176
     1
 40
1.0
176
     1
 40
1.0
176
     1
  0
VISUALSTYLE
  5
BC4
102
{ACAD_REACTORS
330
2F
102
}
330
2F
100
AcDbVisualStyle
  2
FlatWithEdges
 70
     1
177
     3
291
     1
 70
    58
 90
        2
176
     1
 90
        1
176
     1
 90
        1
176
     1
 90
        2
176
     1
 40
0.6
176
     1
 40
30.0
176
     1
 62
     7
176
     1
 90
        1
176
     1
 90
        0
176
     1
 62
     7
176
     1
 62
   257
176
     1
 90
        1
176
     1
 90
        1
176
     1
 40
1.0
176
     1
 90
        0
176
     1
 62
   257
176
     1
 40
1.0
176
     1
 90
        1
176
     1
 90
        6
176
     1
 90
        2
176
     1
 62
     7
176
     1
 90
        5
176
     1
 90
        0
176
     1
 90
        0
176
     1
290
     0
176
     1
 90
       13
176
     1
 40
0.0
176
     1
 90
        0
176
     1
290
     0
176
     1
290
     1
176
     1
290
     1
176
     1
290
     0
176
     1
290
     0
176
     1
290
     0
176
     1
290
     0
176
     1
290
     0
176
     1
290
     0
176
     1
 90
       50
176
     1
 40
0.0
176
     1
 40
1.0
176
     1
 90
        0
176
     1
 62
    18
420
        0
176
     1
 90
       50
176
     1
 90
        3
176
     1
 62
     5
420
      255
176
     1
290
     0
176
     1
 90
       50
176
     1
 90
       50
176
     1
 90
       50
176
     1
290
     0
176
     1
 90
       50
176
     1
 62
   256
176
     0
 40
1.0
176
     0
 90
        2
176
     1
  1
strokes_ogs.tif
176
     1
290
     0
176
     1
 40
1.0
176
     1
 40
1.0
176
     1
  0
VISUALSTYLE
  5
BC5
102
{ACAD_REACTORS
330
2F
102
}
330
2F
100
AcDbVisualStyle
  2
Gouraud
 70
     2
177
     3
291
     1
 70
    58
 90
        2
176
     1
 90
        2
176
     1
 90
        1
176
     1
 90
        2
176
     1
 40
0.6
176
     1
 40
30.0
176
     1
 62
     7
176
     1
 90
        0
176
     1
 90
        0
176
     1
 62
     7
176
     1
 62
   257
176
     1
 90
        1
176
     1
 90
        1
176
     1
 40
1.0
176
     1
 90
        0
176
     1
 62
     7
176
     1
 40
1.0
176
     1
 90
        1
176
     1
 90
        6
176
     1
 90
        2
176
     1
 62
     7
176
     1
 90
        5
176
     1
 90
        0
176
     1
 90
        0
176
     1
290
     0
176
     1
 90
       13
176
     1
 40
0.0
176
     1
 90
        0
176
     1
290
     0
176
     1
290
     1
176
     1
290
     1
176
     1
290
     0
176
     1
290
     0
176
     1
290
     0
176
     1
290
     0
176
     1
290
     0
176
     1
290
     0
176
     1
 90
       50
176
     1
 40
0.0
176
     1
 40
1.0
176
     1
 90
        0
176
     1
 62
    18
420
        0
176
     1
 90
       50
176
     1
 90
        3
176
     1
 62
     5
420
      255
176
     1
290
     0
176
     1
 90
       50
176
     1
 90
       50
176
     1
 90
       50
176
     1
290
     0
176
     1
 90
       50
176
     1
 62
   256
176
     0
 40
1.0
176
     0
 90
        2
176
     1
  1
strokes_ogs.tif
176
     1
290
     0
176
     1
 40
1.0
176
     1
 40
1.0
176
     1
  0
VISUALSTYLE
  5
BC6
102
{ACAD_REACTORS
330
2F
102
}
330
2F
100
AcDbVisualStyle
  2
GouraudWithEdges
 70
     3
177
     3
291
     1
 70
    58
 90
        2
176
     1
 90
        2
176
     1
 90
        1
176
     1
 90
        2
176
     1
 40
0.6
176
     1
 40
30.0
176
     1
 62
     7
176
     1
 90
        1
176
     1
 90
        0
176
     1
 62
     7
176
     1
 62
   257
176
     1
 90
        1
176
     1
 90
        1
176
     1
 40
1.0
176
     1
 90
        0
176
     1
 62
   257
176
     1
 40
1.0
176
     1
 90
        1
176
     1
 90
        6
176
     1
 90
        2
176
     1
 62
     7
176
     1
 90
        5
176
     1
 90
        0
176
     1
 90
        0
176
     1
290
     0
176
     1
 90
       13
176
     1
 40
0.0
176
     1
 90
        0
176
     1
290
     0
176
     1
290
     1
176
     1
290
     1
176
     1
290
     0
176
     1
290
     0
176
     1
290
     0
176
     1
290
     0
176
     1
290
     0
176
     1
290
     0
176
     1
 90
       50
176
     1
 40
0.0
176
     1
 40
1.0
176
     1
 90
        0
176
     1
 62
    18
420
        0
176
     1
 90
       50
176
     1
 90
        3
176
     1
 62
     5
420
      255
176
     1
290
     0
176
     1
 90
       50
176
     1
 90
       50
176
     1
 90
       50
176
     1
290
     0
176
     1
 90
       50
176
     1
 62
   256
176
     0
 40
1.0
176
     0
 90
        2
176
     1
  1
strokes_ogs.tif
176
     1
290
     0
176
     1
 40
1.0
176
     1
 40
1.0
176
     1
  0
VISUALSTYLE
  5
BC9
102
{ACAD_REACTORS
330
2F
102
}
330
2F
100
AcDbVisualStyle
  2
Hidden
 70
     6
177
     3
291
     0
 70
    58
 90
        1
176
     1
 90
        2
176
     1
 90
        2
176
     1
 90
        0
176
     1
 40
0.6
176
     1
 40
30.0
176
     1
 62
     7
176
     1
 90
        2
176
     1
 90
        2
176
     1
 62
     7
176
     1
 62
   257
176
     1
 90
        2
176
     1
 90
        1
176
     1
 40
40.0
176
     1
 90
        0
176
     1
 62
   257
176
     1
 40
1.0
176
     1
 90
        1
176
     1
 90
        6
176
     1
 90
        2
176
     1
 62
     7
176
     1
 90
        3
176
     1
 90
        0
176
     1
 90
        0
176
     1
290
     0
176
     1
 90
        1
176
     1
 40
0.0
176
     1
 90
        0
176
     1
290
     0
176
     1
290
     1
176
     1
290
     1
176
     1
290
     0
176
     1
290
     0
176
     1
290
     0
176
     1
290
     0
176
     1
290
     0
176
     1
290
     0
176
     1
 90
       50
176
     1
 40
0.0
176
     1
 40
1.0
176
     1
 90
        0
176
     1
 62
    18
420
        0
176
     1
 90
       50
176
     1
 90
        3
176
     1
 62
     5
420
      255
176
     1
290
     0
176
     1
 90
       50
176
     1
 90
       50
176
     1
 90
       50
176
     1
290
     0
176
     1
 90
       50
176
     1
 62
   256
176
     0
 40
1.0
176
     0
 90
        2
176
     1
  1
strokes_ogs.tif
176
     1
290
     0
176
     1
 40
1.0
176
     1
 40
1.0
176
     1
  0
VISUALSTYLE
  5
BD6
102
{ACAD_REACTORS
330
2F
102
}
330
2F
100
AcDbVisualStyle
  2
JitterOff
 70
    20
177
     3
291
     1
 70
    58
 90
        2
176
     0
 90
        2
176
     0
 90
        0
176
     0
 90
        0
176
     0
 40
0.6
176
     0
 40
30.0
176
     0
 62
     7
176
     0
 90
        1
176
     0
 90
        4
176
     0
 62
     7
176
     0
 62
   257
176
     0
 90
        1
176
     0
 90
        1
176
     0
 40
1.0
176
     0
 90
       10
176
     2
 62
     7
176
     0
 40
1.0
176
     0
 90
        1
176
     0
 90
        6
176
     0
 90
        2
176
     0
 62
     7
176
     0
 90
        5
176
     0
 90
        0
176
     0
 90
        0
176
     0
290
     0
176
     0
 90
        1
176
     0
 40
0.0
176
     0
 90
        0
176
     0
290
     0
176
     0
290
     1
176
     0
290
     1
176
     0
290
     0
176
     0
290
     0
176
     0
290
     0
176
     0
290
     0
176
     0
290
     0
176
     0
290
     0
176
     0
 90
       50
176
     0
 40
0.0
176
     0
 40
1.0
176
     0
 90
        0
176
     0
 62
    18
420
        0
176
     0
 90
       50
176
     0
 90
        3
176
     0
 62
     5
420
      255
176
     0
290
     0
176
     0
 90
       50
176
     0
 90
       50
176
     0
 90
       50
176
     0
290
     0
176
     0
 90
       50
176
     0
 62
   256
176
     0
 40
1.0
176
     0
 90
        2
176
     0
  1
strokes_ogs.tif
176
     0
290
     0
176
     0
 40
1.0
176
     0
 40
1.0
176
     0
  0
VISUALSTYLE
  5
BCE
102
{ACAD_REACTORS
330
2F
102
}
330
2F
100
AcDbVisualStyle
  2
Linepattern
 70
    14
177
     3
291
     1
 70
    58
 90
        2
176
     1
 90
        2
176
     1
 90
        0
176
     1
 90
        0
176
     1
 40
0.6
176
     1
 40
30.0
176
     1
 62
     7
176
     1
 90
        1
176
     1
 90
        4
176
     1
 62
     7
176
     1
 62
   257
176
     1
 90
        7
176
     1
 90
        7
176
     1
 40
1.0
176
     1
 90
        8
176
     1
 62
     7
176
     1
 40
1.0
176
     1
 90
        1
176
     1
 90
        6
176
     1
 90
        2
176
     1
 62
     7
176
     1
 90
        5
176
     1
 90
        0
176
     1
 90
        0
176
     1
290
     0
176
     1
 90
        1
176
     1
 40
0.0
176
     1
 90
        0
176
     1
290
     0
176
     1
290
     1
176
     1
290
     1
176
     1
290
     0
176
     1
290
     0
176
     1
290
     0
176
     1
290
     0
176
     1
290
     0
176
     1
290
     0
176
     1
 90
       50
176
     1
 40
0.0
176
     1
 40
1.0
176
     1
 90
        0
176
     1
 62
    18
420
        0
176
     1
 90
       50
176
     1
 90
        3
176
     1
 62
     5
420
      255
176
     1
290
     0
176
     1
 90
       50
176
     1
 90
       50
176
     1
 90
       50
176
     1
290
     0
176
     1
 90
       50
176
     1
 62
   256
176
     0
 40
1.0
176
     0
 90
        2
176
     1
  1
strokes_ogs.tif
176
     1
290
     0
176
     1
 40
1.0
176
     1
 40
1.0
176
     1
  0
VISUALSTYLE
  5
BD7
102
{ACAD_REACTORS
330
2F
102
}
330
2F
100
AcDbVisualStyle
  2
OverhangOff
 70
    21
177
     3
291
     1
 70
    58
 90
        2
176
     0
 90
        2
176
     0
 90
        0
176
     0
 90
        0
176
     0
 40
0.6
176
     0
 40
30.0
176
     0
 62
     7
176
     0
 90
        1
176
     0
 90
        4
176
     0
 62
     7
176
     0
 62
   257
176
     0
 90
        1
176
     0
 90
        1
176
     0
 40
1.0
176
     0
 90
        9
176
     2
 62
     7
176
     0
 40
1.0
176
     0
 90
        1
176
     0
 90
        6
176
     0
 90
        2
176
     0
 62
     7
176
     0
 90
        5
176
     0
 90
        0
176
     0
 90
        0
176
     0
290
     0
176
     0
 90
        1
176
     0
 40
0.0
176
     0
 90
        0
176
     0
290
     0
176
     0
290
     1
176
     0
290
     1
176
     0
290
     0
176
     0
290
     0
176
     0
290
     0
176
     0
290
     0
176
     0
290
     0
176
     0
290
     0
176
     0
 90
       50
176
     0
 40
0.0
176
     0
 40
1.0
176
     0
 90
        0
176
     0
 62
    18
420
        0
176
     0
 90
       50
176
     0
 90
        3
176
     0
 62
     5
420
      255
176
     0
290
     0
176
     0
 90
       50
176
     0
 90
       50
176
     0
 90
       50
176
     0
290
     0
176
     0
 90
       50
176
     0
 62
   256
176
     0
 40
1.0
176
     0
 90
        2
176
     0
  1
strokes_ogs.tif
176
     0
290
     0
176
     0
 40
1.0
176
     0
 40
1.0
176
     0
  0
VISUALSTYLE
  5
46
102
{ACAD_REACTORS
330
2F
102
}
330
2F
100
AcDbVisualStyle
  2
Realistic
 70
     8
177
     3
291
     0
 70
    58
 90
        2
176
     1
 90
        2
176
     1
 90
        1
176
     1
 90
        0
176
     1
 40
0.6
176
     1
 40
30.0
176
     1
 62
     7
176
     1
 90
        1
176
     1
 90
        0
176
     1
 62
     7
176
     1
 62
   257
176
     1
 90
        1
176
     1
 90
        1
176
     1
 40
1.0
176
     1
 90
        8
176
     1
 62
     8
176
     1
 40
1.0
176
     1
 90
        1
176
     1
 90
        6
176
     1
 90
        2
176
     1
 62
     7
176
     1
 90
        5
176
     1
 90
        0
176
     1
 90
        0
176
     1
290
     0
176
     1
 90
       13
176
     1
 40
0.0
176
     1
 90
        0
176
     1
290
     0
176
     1
290
     1
176
     1
290
     1
176
     1
290
     0
176
     1
290
     0
176
     1
290
     0
176
     1
290
     0
176
     1
290
     0
176
     1
290
     0
176
     1
 90
       50
176
     1
 40
0.0
176
     1
 40
1.0
176
     1
 90
        0
176
     1
 62
    18
420
        0
176
     1
 90
       50
176
     1
 90
        3
176
     1
 62
     5
420
      255
176
     1
290
     0
176
     1
 90
       50
176
     1
 90
       50
176
     1
 90
       50
176
     1
290
     0
176
     1
 90
       50
176
     1
 62
   256
176
     0
 40
1.0
176
     0
 90
        2
176
     1
  1
strokes_ogs.tif
176
     1
290
     0
176
     1
 40
1.0
176
     1
 40
1.0
176
     1
  0
VISUALSTYLE
  5
BD5
102
{ACAD_REACTORS
330
2F
102
}
330
2F
100
AcDbVisualStyle
  2
Shaded
 70
    27
177
     3
291
     0
 70
    58
 90
        2
176
     1
 90
        2
176
     1
 90
        1
176
     1
 90
        2
176
     1
 40
0.6
176
     1
 40
30.0
176
     1
 62
     7
176
     1
 90
        0
176
     1
 90
        4
176
     1
 62
     7
176
     1
 62
   257
176
     1
 90
        1
176
     1
 90
        1
176
     1
 40
1.0
176
     1
 90
        8
176
     1
 62
   257
176
     1
 40
1.0
176
     1
 90
        1
176
     1
 90
        6
176
     1
 90
        2
176
     1
 62
     8
176
     1
 90
        3
176
     1
 90
        0
176
     1
 90
        0
176
     1
290
     0
176
     1
 90
        5
176
     1
 40
0.0
176
     1
 90
        0
176
     1
290
     0
176
     1
290
     1
176
     1
290
     1
176
     1
290
     0
176
     1
290
     0
176
     1
290
     0
176
     1
290
     0
176
     1
290
     0
176
     1
290
     0
176
     1
 90
       50
176
     1
 40
0.0
176
     1
 40
1.0
176
     1
 90
        0
176
     1
 62
    18
420
        0
176
     1
 90
       50
176
     1
 90
        3
176
     1
 62
     5
420
      255
176
     1
290
     0
176
     1
 90
       50
176
     1
 90
       50
176
     1
 90
       50
176
     1
290
     0
176
     1
 90
       50
176
     1
 62
   256
176
     0
 40
1.0
176
     0
 90
        2
176
     1
  1
strokes_ogs.tif
176
     1
290
     0
176
     1
 40
1.0
176
     1
 40
1.0
176
     1
  0
VISUALSTYLE
  5
BD4
102
{ACAD_REACTORS
330
2F
102
}
330
2F
100
AcDbVisualStyle
  2
Shaded with edges
 70
    26
177
     3
291
     0
 70
    58
 90
        2
176
     1
 90
        2
176
     1
 90
        1
176
     1
 90
        2
176
     1
 40
0.6
176
     1
 40
30.0
176
     1
 62
     7
176
     1
 90
        1
176
     1
 90
       10
176
     1
 62
     7
176
     1
 62
   257
176
     1
 90
        2
176
     1
 90
        1
176
     1
 40
1.0
176
     1
 90
        8
176
     1
 62
   257
176
     1
 40
1.0
176
     1
 90
        1
176
     1
 90
        6
176
     1
 90
        2
176
     1
 62
     7
176
     1
 90
        3
176
     1
 90
        0
176
     1
 90
        0
176
     1
290
     0
176
     1
 90
        5
176
     1
 40
0.0
176
     1
 90
        0
176
     1
290
     0
176
     1
290
     1
176
     1
290
     1
176
     1
290
     0
176
     1
290
     0
176
     1
290
     0
176
     1
290
     0
176
     1
290
     0
176
     1
290
     0
176
     1
 90
       50
176
     1
 40
0.0
176
     1
 40
1.0
176
     1
 90
        0
176
     1
 62
    18
420
        0
176
     1
 90
       50
176
     1
 90
        3
176
     1
 62
     5
420
      255
176
     1
290
     0
176
     1
 90
       50
176
     1
 90
       50
176
     1
 90
       50
176
     1
290
     0
176
     1
 90
       50
176
     1
 62
   256
176
     0
 40
1.0
176
     0
 90
        2
176
     1
  1
strokes_ogs.tif
176
     1
290
     0
176
     1
 40
1.0
176
     1
 40
1.0
176
     1
  0
VISUALSTYLE
  5
BD1
102
{ACAD_REACTORS
330
2F
102
}
330
2F
100
AcDbVisualStyle
  2
Shades of Gray
 70
    23
177
     3
291
     0
 70
    58
 90
        2
176
     1
 90
        2
176
     1
 90
        3
176
     1
 90
        0
176
     1
 40
0.6
176
     1
 40
30.0
176
     1
 62
     7
176
     1
 90
        2
176
     1
 90
        2
176
     1
 62
     7
176
     1
 62
     7
176
     1
 90
        1
176
     1
 90
        1
176
     1
 40
40.0
176
     1
 90
        8
176
     1
 62
     7
176
     1
 40
1.0
176
     1
 90
        1
176
     1
 90
        6
176
     1
 90
        2
176
     1
 62
     7
176
     1
 90
        3
176
     1
 90
        0
176
     1
 90
        0
176
     1
290
     0
176
     1
 90
        1
176
     1
 40
0.0
176
     1
 90
        0
176
     1
290
     0
176
     1
290
     1
176
     1
290
     1
176
     1
290
     0
176
     1
290
     0
176
     1
290
     0
176
     1
290
     0
176
     1
290
     0
176
     1
290
     0
176
     1
 90
       50
176
     1
 40
0.0
176
     1
 40
1.0
176
     1
 90
        0
176
     1
 62
    18
420
        0
176
     1
 90
       50
176
     1
 90
        3
176
     1
 62
     5
420
      255
176
     1
290
     0
176
     1
 90
       50
176
     1
 90
       50
176
     1
 90
       50
176
     1
290
     0
176
     1
 90
       50
176
     1
 62
   256
176
     0
 40
1.0
176
     0
 90
        2
176
     1
  1
strokes_ogs.tif
176
     1
290
     0
176
     1
 40
1.0
176
     1
 40
1.0
176
     1
  0
VISUALSTYLE
  5
BD2
102
{ACAD_REACTORS
330
2F
102
}
330
2F
100
AcDbVisualStyle
  2
Sketchy
 70
    24
177
     3
291
     0
 70
    58
 90
        1
176
     1
 90
        2
176
     1
 90
        2
176
     1
 90
        0
176
     1
 40
0.6
176
     1
 40
30.0
176
     1
 62
     7
176
     1
 90
        2
176
     1
 90
        2
176
     1
 62
     7
176
     1
 62
     7
176
     1
 90
        1
176
     1
 90
        1
176
     1
 40
40.0
176
     1
 90
       11
176
     1
 62
     7
176
     1
 40
1.0
176
     1
 90
        1
176
     1
 90
        6
176
     1
 90
        2
176
     1
 62
     7
176
     1
 90
        6
176
     1
 90
        0
176
     1
 90
        0
176
     1
290
     0
176
     1
 90
        1
176
     1
 40
0.0
176
     1
 90
        0
176
     1
290
     0
176
     1
290
     1
176
     1
290
     1
176
     1
290
     0
176
     1
290
     0
176
     1
290
     0
176
     1
290
     0
176
     1
290
     0
176
     1
290
     0
176
     1
 90
       50
176
     1
 40
0.0
176
     1
 40
1.0
176
     1
 90
        0
176
     1
 62
    18
420
        0
176
     1
 90
       50
176
     1
 90
        3
176
     1
 62
     5
420
      255
176
     1
290
     0
176
     1
 90
       50
176
     1
 90
       50
176
     1
 90
       50
176
     1
290
     0
176
     1
 90
       50
176
     1
 62
   256
176
     0
 40
1.0
176
     0
 90
        2
176
     1
  1
strokes_ogs.tif
176
     1
290
     0
176
     1
 40
1.0
176
     1
 40
1.0
176
     1
  0
VISUALSTYLE
  5
BCD
102
{ACAD_REACTORS
330
2F
102
}
330
2F
100
AcDbVisualStyle
  2
Thicken
 70
    13
177
     3
291
     1
 70
    58
 90
        2
176
     1
 90
        2
176
     1
 90
        0
176
     1
 90
        0
176
     1
 40
0.6
176
     1
 40
30.0
176
     1
 62
     7
176
     1
 90
        1
176
     1
 90
        4
176
     1
 62
     7
176
     1
 62
   257
176
     1
 90
        1
176
     1
 90
        1
176
     1
 40
1.0
176
     1
 90
       12
176
     1
 62
     7
176
     1
 40
1.0
176
     1
 90
        1
176
     1
 90
        6
176
     1
 90
        2
176
     1
 62
     7
176
     1
 90
        5
176
     1
 90
        0
176
     1
 90
        0
176
     1
290
     0
176
     1
 90
        1
176
     1
 40
0.0
176
     1
 90
        0
176
     1
290
     0
176
     1
290
     1
176
     1
290
     1
176
     1
290
     0
176
     1
290
     0
176
     1
290
     0
176
     1
290
     0
176
     1
290
     0
176
     1
290
     0
176
     1
 90
       50
176
     1
 40
0.0
176
     1
 40
1.0
176
     1
 90
        0
176
     1
 62
    18
420
        0
176
     1
 90
       50
176
     1
 90
        3
176
     1
 62
     5
420
      255
176
     1
290
     0
176
     1
 90
       50
176
     1
 90
       50
176
     1
 90
       50
176
     1
290
     0
176
     1
 90
       50
176
     1
 62
   256
176
     0
 40
1.0
176
     0
 90
        2
176
     1
  1
strokes_ogs.tif
176
     1
290
     0
176
     1
 40
1.0
176
     1
 40
1.0
176
     1
  0
VISUALSTYLE
  5
BC8
102
{ACAD_REACTORS
330
2F
102
}
330
2F
100
AcDbVisualStyle
  2
Wireframe
 70
     5
177
     3
291
     0
 70
    58
 90
        0
176
     1
 90
        2
176
     1
 90
        0
176
     1
 90
        0
176
     1
 40
0.6
176
     1
 40
30.0
176
     1
 62
     7
176
     1
 90
        1
176
     1
 90
        4
176
     1
 62
     7
176
     1
 62
   257
176
     1
 90
        1
176
     1
 90
        1
176
     1
 40
1.0
176
     1
 90
        0
176
     1
 62
   257
176
     1
 40
1.0
176
     1
 90
        1
176
     1
 90
        6
176
     1
 90
        2
176
     1
 62
     7
176
     1
 90
        3
176
     1
 90
        0
176
     1
 90
        0
176
     1
290
     0
176
     1
 90
        1
176
     1
 40
0.0
176
     1
 90
        0
176
     1
290
     0
176
     1
290
     1
176
     1
290
     1
176
     1
290
     0
176
     1
290
     0
176
     1
290
     0
176
     1
290
     0
176
     1
290
     0
176
     1
290
     0
176
     1
 90
       50
176
     1
 40
0.0
176
     1
 40
1.0
176
     1
 90
        0
176
     1
 62
    18
420
        0
176
     1
 90
       50
176
     1
 90
        3
176
     1
 62
     5
420
      255
176
     1
290
     0
176
     1
 90
       50
176
     1
 90
       50
176
     1
 90
       50
176
     1
290
     0
176
     1
 90
       50
176
     1
 62
   256
176
     0
 40
1.0
176
     0
 90
        2
176
     1
  1
strokes_ogs.tif
176
     1
290
     0
176
     1
 40
1.0
176
     1
 40
1.0
176
     1
  0
VISUALSTYLE
  5
BD3
102
{ACAD_REACTORS
330
2F
102
}
330
2F
100
AcDbVisualStyle
  2
X-Ray
 70
    25
177
     3
291
     0
 70
    58
 90
        2
176
     1
 90
        2
176
     1
 90
        1
176
     1
 90
        1
176
     1
 40
0.5
176
     1
 40
30.0
176
     1
 62
     7
176
     1
 90
        1
176
     1
 90
        0
176
     1
 62
     7
176
     1
 62
   257
176
     1
 90
        1
176
     1
 90
        1
176
     1
 40
1.0
176
     1
 90
        8
176
     1
 62
     7
176
     1
 40
1.0
176
     1
 90
        1
176
     1
 90
        6
176
     1
 90
        2
176
     1
 62
     7
176
     1
 90
        3
176
     1
 90
        0
176
     1
 90
        0
176
     1
290
     0
176
     1
 90
       13
176
     1
 40
0.0
176
     1
 90
        0
176
     1
290
     0
176
     1
290
     1
176
     1
290
     1
176
     1
290
     0
176
     1
290
     0
176
     1
290
     0
176
     1
290
     0
176
     1
290
     0
176
     1
290
     0
176
     1
 90
       50
176
     1
 40
0.0
176
     1
 40
1.0
176
     1
 90
        0
176
     1
 62
    18
420
        0
176
     1
 90
       50
176
     1
 90
        3
176
     1
 62
     5
420
      255
176
     1
290
     0
176
     1
 90
       50
176
     1
 90
       50
176
     1
 90
       50
176
     1
290
     0
176
     1
 90
       50
176
     1
 62
   256
176
     0
 40
1.0
176
     0
 90
        2
176
     1
  1
strokes_ogs.tif
176
     1
290
     0
176
     1
 40
1.0
176
     1
 40
1.0
176
     1
  0
DICTIONARYVAR
  5
BBE
102
{ACAD_REACTORS
330
BB8
102
}
330
BB8
100
DictionaryVariables
280
     0
  1
1:1
  0
DICTIONARYVAR
  5
BBA
102
{ACAD_REACTORS
330
BB8
102
}
330
BB8
100
DictionaryVariables
280
     0
  1
STANDARD
  0
DICTIONARYVAR
  5
BB9
102
{ACAD_REACTORS
330
BB8
102
}
330
BB8
100
DictionaryVariables
280
     0
  1
STANDARD
  0
DICTIONARYVAR
  5
BBB
102
{ACAD_REACTORS
330
BB8
102
}
330
BB8
100
DictionaryVariables
280
     0
  1
Metric50
  0
DICTIONARYVAR
  5
BBC
102
{ACAD_REACTORS
330
BB8
102
}
330
BB8
100
DictionaryVariables
280
     0
  1
Metric50
  0
DICTIONARYVAR
  5
C3B
102
{ACAD_REACTORS
330
BB8
102
}
330
BB8
100
DictionaryVariables
280
     0
  1
1
  0
DICTIONARYVAR
  5
C39
102
{ACAD_REACTORS
330
BB8
102
}
330
BB8
100
DictionaryVariables
280
     0
  1
1
  0
DICTIONARYVAR
  5
FF3
102
{ACAD_REACTORS
330
BB8
102
}
330
BB8
100
DictionaryVariables
280
     0
  1
4
  0
DICTIONARYVAR
  5
C38
102
{ACAD_REACTORS
330
BB8
102
}
330
BB8
100
DictionaryVariables
280
     0
  1
0
  0
DICTIONARYVAR
  5
BC0
102
{ACAD_REACTORS
330
BB8
102
}
330
BB8
100
DictionaryVariables
280
     0
  1
1
  0
DICTIONARYVAR
  5
BC1
102
{ACAD_REACTORS
330
BB8
102
}
330
BB8
100
DictionaryVariables
280
     0
  1
15
  0
DICTIONARYVAR
  5
BBF
102
{ACAD_REACTORS
330
BB8
102
}
330
BB8
100
DictionaryVariables
280
     0
  1
0
  0
DICTIONARYVAR
  5
BBD
102
{ACAD_REACTORS
330
BB8
102
}
330
BB8
100
DictionaryVariables
280
     0
  1
0
  0
DICTIONARYVAR
  5
C3C
102
{ACAD_REACTORS
330
BB8
102
}
330
BB8
100
DictionaryVariables
280
     0
  1
1
  0
DICTIONARYVAR
  5
C37
102
{ACAD_REACTORS
330
BB8
102
}
330
BB8
100
DictionaryVariables
280
     0
  1
127
  0
ACDBASSOCNETWORK
  5
4C1A6
102
{ACAD_REACTORS
330
4C1A5
102
}
330
4C1A5
100
AcDbAssocAction
 90
        2
 90
        0
330
4BEA6
360
0
 90
        2
 90
        0
 90
        0
 90
        0
 90
        0
 90
        0
 90
        0
100
AcDbAssocNetwork
 90
        0
 90
       46
 90
        1
360
4CC57
 90
        0
  0
DICTIONARY
  5
4CEA4
330
283CD
100
AcDbDictionary
280
     1
281
     1
  3
ACAD_XREC_ROUNDTRIP
360
4CEA5
  0
DICTIONARY
  5
4CEA0
330
BDD
100
AcDbDictionary
280
     1
281
     1
  3
ACAD_XREC_ROUNDTRIP
360
4CEA1
  0
DICTIONARY
  5
18
330
16
100
AcDbDictionary
280
     1
281
     1
  0
DICTIONARY
  5
1F
330
1E
100
AcDbDictionary
280
     1
281
     1
  0
DICTIONARY
  5
E
330
C
100
AcDbDictionary
280
     1
281
     1
  3
BUMPTILE
360
F
  3
DIFFUSETILE
360
10
  3
OPACITYTILE
360
11
  3
REFLECTIONTILE
360
12
  0
DICTIONARY
  5
4CEA2
330
283CC
100
AcDbDictionary
280
     1
281
     1
  3
ACAD_XREC_ROUNDTRIP
360
4CEA3
  0
DICTIONARY
  5
4CE9E
330
BDB
100
AcDbDictionary
280
     1
281
     1
  3
ACAD_XREC_ROUNDTRIP
360
4CE9F
  0
DICTIONARY
  5
45
330
44
100
AcDbDictionary
280
     1
281
     1
  3
ACAD_ROUNDTRIP_2008_TABLESTYLE_CELLSTYLEMAP
360
4CE9D
  0
ACDBASSOCACTION
  5
4CC57
330
4C1A6
100
AcDbAssocAction
 90
        2
 90
        0
330
4C1A6
360
4CC58
 90
       46
 90
        3
 90
        3
360
4CC59
360
4CC5A
360
4CC5B
 90
        0
 90
        3
360
4CC5C
360
4CC5D
360
4CC5E
 90
        0
 90
       10
 90
        0
  1
FillAngle
 90
        2
 90
        1
 40
6.283185307179586
330
0
330
0
 90
        0
  1
ItemSpacing
 90
        2
 90
        1
 40
1.047197551196597
330
0
330
0
 90
        0
  1
Items
 90
        0
 90
        1
 90
        6
330
0
330
0
 90
        0
  1
LevelSpacing
 90
        1
 90
        1
 40
1.0
330
0
330
0
 90
        0
  1
Levels
 90
        0
 90
        1
 90
        1
330
0
330
0
 90
        0
  1
RowElevation
 90
        1
 90
        1
 40
0.0
330
0
330
0
 90
        0
  1
RowSpacing
 90
        1
 90
        1
 40
7.500000029999981
330
0
330
0
 90
        0
  1
Rows
 90
        0
 90
        1
 90
        1
330
0
330
0
 90
        0
  1
Radius
 90
        1
 90
        1
 40
16.6503123804535
330
0
330
0
 90
        0
  1
StartAngle
 90
        2
 90
        1
 40
1.564670758188887
330
0
330
0
  0
XRECORD
  5
4CEA5
102
{ACAD_REACTORS
330
4CEA4
102
}
330
4CEA4
100
AcDbXrecord
280
     1
102
DISPLAYNAME
  1
Imperial24
102
FLAGS
 90
        0
  0
XRECORD
  5
4CEA1
102
{ACAD_REACTORS
330
4CEA0
102
}
330
4CEA0
100
AcDbXrecord
280
     1
102
DISPLAYNAME
  1
Metric50
102
FLAGS
 90
        0
  0
XRECORD
  5
F
102
{ACAD_REACTORS
330
E
102
}
330
E
100
AcDbXrecord
280
     1
270
     1
271
     1
  0
XRECORD
  5
10
102
{ACAD_REACTORS
330
E
102
}
330
E
100
AcDbXrecord
280
     1
270
     1
271
     1
  0
XRECORD
  5
11
102
{ACAD_REACTORS
330
E
102
}
330
E
100
AcDbXrecord
280
     1
270
     1
271
     1
  0
XRECORD
  5
12
102
{ACAD_REACTORS
330
E
102
}
330
E
100
AcDbXrecord
280
     1
270
     1
271
     1
  0
XRECORD
  5
4CEA3
102
{ACAD_REACTORS
330
4CEA2
102
}
330
4CEA2
100
AcDbXrecord
280
     1
102
DISPLAYNAME
  1
Imperial24
102
FLAGS
 90
        0
  0
XRECORD
  5
4CE9F
102
{ACAD_REACTORS
330
4CE9E
102
}
330
4CE9E
100
AcDbXrecord
280
     1
102
DISPLAYNAME
  1
Metric50
102
FLAGS
 90
        0
  0
CELLSTYLEMAP
  5
4CE9D
102
{ACAD_REACTORS
330
45
102
}
330
45
100
AcDbCellStyleMap
 90
        3
300
CELLSTYLE
  1
TABLEFORMAT_BEGIN
 90
        5
170
     1
 91
        0
 92
    32768
 62
   257
 93
        1
300
CONTENTFORMAT
  1
CONTENTFORMAT_BEGIN
 90
        0
 91
        0
 92
      512
 93
        0
300

 40
0.0
140
1.0
 94
        5
 62
     0
340
25
144
6.0
309
CONTENTFORMAT_END
171
     1
301
MARGIN
  1
CELLMARGIN_BEGIN
 40
1.5
 40
1.5
 40
1.5
 40
1.5
 40
0.18
 40
0.18
309
CELLMARGIN_END
 94
        6
 95
        1
302
GRIDFORMAT
  1
GRIDFORMAT_BEGIN
 90
        0
 91
        1
 62
     0
 92
       -2
340
28
 93
        0
 40
1.125
309
GRIDFORMAT_END
 95
        2
302
GRIDFORMAT
  1
GRIDFORMAT_BEGIN
 90
        0
 91
        1
 62
     0
 92
       -2
340
28
 93
        0
 40
1.125
309
GRIDFORMAT_END
 95
        4
302
GRIDFORMAT
  1
GRIDFORMAT_BEGIN
 90
        0
 91
        1
 62
     0
 92
       -2
340
28
 93
        0
 40
1.125
309
GRIDFORMAT_END
 95
        8
302
GRIDFORMAT
  1
GRIDFORMAT_BEGIN
 90
        0
 91
        1
 62
     0
 92
       -2
340
28
 93
        0
 40
1.125
309
GRIDFORMAT_END
 95
       16
302
GRIDFORMAT
  1
GRIDFORMAT_BEGIN
 90
        0
 91
        1
 62
     0
 92
       -2
340
28
 93
        0
 40
1.125
309
GRIDFORMAT_END
 95
       32
302
GRIDFORMAT
  1
GRIDFORMAT_BEGIN
 90
        0
 91
        1
 62
     0
 92
       -2
340
28
 93
        0
 40
1.125
309
GRIDFORMAT_END
309
TABLEFORMAT_END
  1
CELLSTYLE_BEGIN
 90
        1
 91
        1
300
_TITLE
309
CELLSTYLE_END
300
CELLSTYLE
  1
TABLEFORMAT_BEGIN
 90
        5
170
     1
 91
        0
 92
        0
 62
   257
 93
        1
300
CONTENTFORMAT
  1
CONTENTFORMAT_BEGIN
 90
        0
 91
        0
 92
      512
 93
        0
300

 40
0.0
140
1.0
 94
        5
 62
     0
340
25
144
4.5
309
CONTENTFORMAT_END
171
     1
301
MARGIN
  1
CELLMARGIN_BEGIN
 40
1.5
 40
1.5
 40
1.5
 40
1.5
 40
0.18
 40
0.18
309
CELLMARGIN_END
 94
        6
 95
        1
302
GRIDFORMAT
  1
GRIDFORMAT_BEGIN
 90
        0
 91
        1
 62
     0
 92
       -2
340
28
 93
        0
 40
1.125
309
GRIDFORMAT_END
 95
        2
302
GRIDFORMAT
  1
GRIDFORMAT_BEGIN
 90
        0
 91
        1
 62
     0
 92
       -2
340
28
 93
        0
 40
1.125
309
GRIDFORMAT_END
 95
        4
302
GRIDFORMAT
  1
GRIDFORMAT_BEGIN
 90
        0
 91
        1
 62
     0
 92
       -2
340
28
 93
        0
 40
1.125
309
GRIDFORMAT_END
 95
        8
302
GRIDFORMAT
  1
GRIDFORMAT_BEGIN
 90
        0
 91
        1
 62
     0
 92
       -2
340
28
 93
        0
 40
1.125
309
GRIDFORMAT_END
 95
       16
302
GRIDFORMAT
  1
GRIDFORMAT_BEGIN
 90
        0
 91
        1
 62
     0
 92
       -2
340
28
 93
        0
 40
1.125
309
GRIDFORMAT_END
 95
       32
302
GRIDFORMAT
  1
GRIDFORMAT_BEGIN
 90
        0
 91
        1
 62
     0
 92
       -2
340
28
 93
        0
 40
1.125
309
GRIDFORMAT_END
309
TABLEFORMAT_END
  1
CELLSTYLE_BEGIN
 90
        2
 91
        1
300
_HEADER
309
CELLSTYLE_END
300
CELLSTYLE
  1
TABLEFORMAT_BEGIN
 90
        5
170
     1
 91
        0
 92
        0
 62
   257
 93
        1
300
CONTENTFORMAT
  1
CONTENTFORMAT_BEGIN
 90
        0
 91
        0
 92
      512
 93
        0
300

 40
0.0
140
1.0
 94
        2
 62
     0
340
25
144
4.5
309
CONTENTFORMAT_END
171
     1
301
MARGIN
  1
CELLMARGIN_BEGIN
 40
1.5
 40
1.5
 40
1.5
 40
1.5
 40
0.18
 40
0.18
309
CELLMARGIN_END
 94
        6
 95
        1
302
GRIDFORMAT
  1
GRIDFORMAT_BEGIN
 90
        0
 91
        1
 62
     0
 92
       -2
340
28
 93
        0
 40
1.125
309
GRIDFORMAT_END
 95
        2
302
GRIDFORMAT
  1
GRIDFORMAT_BEGIN
 90
        0
 91
        1
 62
     0
 92
       -2
340
28
 93
        0
 40
1.125
309
GRIDFORMAT_END
 95
        4
302
GRIDFORMAT
  1
GRIDFORMAT_BEGIN
 90
        0
 91
        1
 62
     0
 92
       -2
340
28
 93
        0
 40
1.125
309
GRIDFORMAT_END
 95
        8
302
GRIDFORMAT
  1
GRIDFORMAT_BEGIN
 90
        0
 91
        1
 62
     0
 92
       -2
340
28
 93
        0
 40
1.125
309
GRIDFORMAT_END
 95
       16
302
GRIDFORMAT
  1
GRIDFORMAT_BEGIN
 90
        0
 91
        1
 62
     0
 92
       -2
340
28
 93
        0
 40
1.125
309
GRIDFORMAT_END
 95
       32
302
GRIDFORMAT
  1
GRIDFORMAT_BEGIN
 90
        0
 91
        1
 62
     0
 92
       -2
340
28
 93
        0
 40
1.125
309
GRIDFORMAT_END
309
TABLEFORMAT_END
  1
CELLSTYLE_BEGIN
 90
        3
 91
        2
300
_DATA
309
CELLSTYLE_END
  0
ACDBASSOCARRAYACTIONBODY
  5
4CC58
330
4CC57
100
AcDbAssocActionBody
 90
        2
100
AcDbAssocArrayActionBody
 90
        1
  1
AcDbAssocArrayPolarParameters
 90
        0
 90
        6
  1
AcDbAssocArrayItem
100
AcDbAssocArrayItem
 90
        0
 90
        0
 90
        0
 90
        0
 90
        8
 11
324.3486555669998
 21
159.7650269865458
 31
0.0
330
4CC50
100
AcDbAssocArrayItem
 90
        0
 90
        1
 90
        0
 90
        0
 90
       12
 40
0.5
 40
-0.8660254037844389
 40
0.0
 40
309.8783365975068
 40
0.8660254037844389
 40
0.5
 40
0.0
 40
151.528354643432
 40
0.0
 40
0.0
 40
1.0
 40
0.0
 40
0.0
 40
0.0
 40
0.0
 40
1.0
330
4CC51
100
AcDbAssocArrayItem
 90
        0
 90
        2
 90
        0
 90
        0
 90
       12
 40
-0.5
 40
-0.866025403784439
 40
0.0
 40
309.7763446045457
 40
0.8660254037844387
 40
-0.4999999999999998
 40
0.0
 40
134.8783546434303
 40
0.0
 40
0.0
 40
1.0
 40
0.0
 40
0.0
 40
0.0
 40
0.0
 40
1.0
330
4CC52
100
AcDbAssocArrayItem
 90
        0
 90
        3
 90
        0
 90
        0
 90
       12
 40
-1.0
 40
-0.0000000000000009
 40
0.0
 40
324.1446715810774
 40
0.0000000000000005
 40
-1.0
 40
0.0
 40
126.4650269865425
 40
0.0
 40
0.0
 40
0.9999999999999998
 40
0.0
 40
0.0
 40
0.0
 40
0.0
 40
1.0
330
4CC53
100
AcDbAssocArrayItem
 90
        0
 90
        4
 90
        0
 90
        0
 90
       12
 40
-0.5
 40
0.8660254037844387
 40
0.0
 40
338.6149905505704
 40
-0.8660254037844389
 40
-0.5000000000000005
 40
0.0
 40
134.7016993296563
 40
0.0
 40
0.0
 40
1.0
 40
0.0
 40
0.0
 40
0.0
 40
0.0
 40
1.0
330
4CC54
100
AcDbAssocArrayItem
 90
        0
 90
        5
 90
        0
 90
        0
 90
       12
 40
0.4999999999999992
 40
0.8660254037844396
 40
0.0
 40
338.7169825435316
 40
-0.866025403784439
 40
0.4999999999999986
 40
0.0
 40
151.351699329658
 40
0.0
 40
0.0
 40
1.0
 40
0.0
 40
0.0
 40
0.0
 40
0.0
 40
1.0
330
4CC55
 40
1.0
 40
0.0
 40
0.0
 40
-154.5992025187054
 40
0.0
 40
1.0
 40
0.0
 40
-53.54320978396462
 40
0.0
 40
0.0
 40
1.0
 40
0.0
 40
0.0
 40
0.0
 40
0.0
 40
1.0
  0
ACDBASSOCDEPENDENCY
  5
4CC59
330
4CC57
100
AcDbAssocDependency
 90
        2
 90
        0
290
     0
290
     1
290
     1
290
     1
 90
        0
330
4CC4D
290
     0
330
0
330
0
360
0
 90
        1
  0
ACDBASSOCDEPENDENCY
  5
4CC5A
330
4CC57
100
AcDbAssocDependency
 90
        2
 90
        0
290
     1
290
     0
290
     1
290
     1
 90
        0
330
4CC46
290
     0
330
0
330
0
360
0
 90
        2
  0
ACDBASSOCDEPENDENCY
  5
4CC5B
330
4CC57
100
AcDbAssocDependency
 90
        2
 90
        0
290
     1
290
     1
290
     1
290
     1
 90
-2147483648
330
4CC35
290
     0
330
0
330
0
360
0
 90
        3
  0
ACDBASSOCVERTEXACTIONPARAM
  5
4CC5C
330
4CC57
100
AcDbAssocActionParam
 90
        1
 90
        0
  1
BaseNormal
100
AcDbAssocSingleDependencyActionParam
 90
        0
330
0
100
AcDbAssocVertexActionParam
 90
        0
 10
0.0
 20
0.0
 30
1.0
  0
ACDBASSOCVERTEXACTIONPARAM
  5
4CC5D
330
4CC57
100
AcDbAssocActionParam
 90
        1
 90
        0
  1
Origin
100
AcDbAssocSingleDependencyActionParam
 90
        0
330
0
100
AcDbAssocVertexActionParam
 90
        0
 10
324.2466635740386
 20
143.1150269865441
 30
0.0
  0
ACDBASSOCVERTEXACTIONPARAM
  5
4CC5E
330
4CC57
100
AcDbAssocActionParam
 90
        1
 90
        0
  1
basePoint
100
AcDbAssocSingleDependencyActionParam
 90
        0
330
0
100
AcDbAssocVertexActionParam
 90
        0
 10
0.0
 20
0.0
 30
0.0
  0
ENDSEC
  0
SECTION
  2
ACDSDATA
 70
     2
 71
     6
  0
ACDSSCHEMA
 90
        0
  1
AcDb_Thumbnail_Schema
  2
AcDbDs::ID
280
    10
 91
        8
  2
Thumbnail_Data
280
    15
 91
        0
101
ACDSRECORD
 95
        0
 90
        1
  2
AcDbDs::TreatedAsObjectData
280
     1
291
     1
101
ACDSRECORD
 95
        0
 90
        2
  2
AcDbDs::Legacy
280
     1
291
     1
101
ACDSRECORD
  1
AcDbDs::ID
 90
        3
  2
AcDs:Indexable
280
     1
291
     1
101
ACDSRECORD
  1
AcDbDs::ID
 90
        4
  2
AcDbDs::HandleAttribute
280
     7
282
     1
  0
ACDSSCHEMA
 90
        1
  1
AcDbDs::TreatedAsObjectDataSchema
  2
AcDbDs::TreatedAsObjectData
280
     1
 91
        0
  0
ACDSSCHEMA
 90
        2
  1
AcDbDs::LegacySchema
  2
AcDbDs::Legacy
280
     1
 91
        0
  0
ACDSSCHEMA
 90
        3
  1
AcDbDs::IndexedPropertySchema
  2
AcDs:Indexable
280
     1
 91
        0
  0
ACDSSCHEMA
 90
        4
  1
AcDbDs::HandleAttributeSchema
  2
AcDbDs::HandleAttribute
280
     7
 91
        1
284
     1
  0
ACDSRECORD
 90
        0
  2
AcDbDs::ID
280
    10
320
16
  2
Thumbnail_Data
280
    15
 94
     1662
310
89504E470D0A1A0A0000000D49484452000001000000007508030000009634CF9200000300504C5445000000000000C8C8C80000000000000000000000000000000000000000000000000000330000660000990000CC0000FF0033000033330033660033990033CC0033FF0066000066330066660066990066CC0066FF0099
310
000099330099660099990099CC0099FF00CC0000CC3300CC6600CC9900CCCC00CCFF00FF0000FF3300FF6600FF9900FFCC00FFFF3300003300333300663300993300CC3300FF3333003333333333663333993333CC3333FF3366003366333366663366993366CC3366FF3399003399333399663399993399CC3399FF33CC00
310
33CC3333CC6633CC9933CCCC33CCFF33FF0033FF3333FF6633FF9933FFCC33FFFF6600006600336600666600996600CC6600FF6633006633336633666633996633CC6633FF6666006666336666666666996666CC6666FF6699006699336699666699996699CC6699FF66CC0066CC3366CC6666CC9966CCCC66CCFF66FF0066
310
FF3366FF6666FF9966FFCC66FFFF9900009900339900669900999900CC9900FF9933009933339933669933999933CC9933FF9966009966339966669966999966CC9966FF9999009999339999669999999999CC9999FF99CC0099CC3399CC6699CC9999CCCC99CCFF99FF0099FF3399FF6699FF9999FFCC99FFFFCC0000CC00
310
33CC0066CC0099CC00CCCC00FFCC3300CC3333CC3366CC3399CC33CCCC33FFCC6600CC6633CC6666CC6699CC66CCCC66FFCC9900CC9933CC9966CC9999CC99CCCC99FFCCCC00CCCC33CCCC66CCCC99CCCCCCCCCCFFCCFF00CCFF33CCFF66CCFF99CCFFCCCCFFFFFF0000FF0033FF0066FF0099FF00CCFF00FFFF3300FF3333
310
FF3366FF3399FF33CCFF33FFFF6600FF6633FF6666FF6699FF66CCFF66FFFF9900FF9933FF9966FF9999FF99CCFF99FFFFCC00FFCC33FFCC66FFCC99FFCCCCFFCCFFFFFF00FFFF33FFFF66FFFF99FFFFCCFFFFFF0000000D0D0D1A1A1A2828283535354343435050505D5D5D6B6B6B787878868686939393A1A1A1AEAEAEBB
310
BBBBC9C9C9D6D6D6E4E4E4F1F1F1FFFFFF00000000000000000000000000000000000000000000000000000000000008F1915C000003394944415478DAED9D4196AC200C45B39C4CDC592D39DBC8FC172A0A1A0BEC2F02FA32E9D325C5916B5E08412DA232A617B7CB6FD8886503D0CE00A861229A6557B753B35D852B2B92
310
F7DDABDB9154F0147D8AF600000000000000000000000000000000E0847DD769CD03C85E4A0100002006000000000000000000000000000000E4F6AEED03287C8A9000009C357E350011010000008037074113C07C370FAFA6FC6B623F73EF4F171E308F3D9C2AF870F83EB9C944D00780B11B4D039806FDE5357A4816821E
310
24B0387E2A595077E0AB0F0780290F41178990D24E0247E3E74502D317B47500EA45EBCD5D3CEB76C62196C0E1F839389C43A0F2DEE077646E7843E0AD6C468081520074FA3804E0FE2601D4DD1A336E5ADD0318C6F10F2900730F1C1E4ECF87D501EC67FBED494FD73F2501F5B17F71033F1F684500490F8C01ACC2D5A88B
310
619180CCA76B02A03F01A81B048F0084DF7300064A00D0A0B6C39104A87F00E3F8876105207BB7D5000A539C31688F00AC070D5C2E204EE8627900DBBDF60BC06C3AA5CAA60770B874D04E00B04F7CC6159E068B3D0ED67ECBE155FEB2EB285A2A72FC7FCB1E30BB7B62865BBACAF600ED4502250044B5FE6E00048B818307
310
9B5600F47B168856CBCF047090071813A15606A0452460AF9834143EFBD898CC04B5ECF8AF03A03F01B8C36BA5D067C339A97069023779008DD2A10D00CE4885B591189007800E0190064523BF241ED387A62B4276BEFB8720184F043C9712AB578492FDF3894E121E30D7C478D1352BB75F133C0D6053F332AA62BE2A9C37
310
FE2E00E497C5752D834C2190E8791EB04DF5CC19732A35333D05C06E6FF0706B8CCEBE18A00B007CA2EDC527080000D00E8032047A02508440E5BDC173004A10A8BC35761240010295B7C61A00D0530C00000000805702105E22F5C300882B71256721115976C573DAF704405E0EA005030000008092BDE3B9414800000000
310
0000000000000000000000E0E60C3FD71E0A60F7C96763F79C60B5374A6AE40B8B437CF6D7FDA1AFD454530B743B80FA1288007C3E7BE9BF2A0886005E1704DF360D02401889B70600C804110411049F0E60D5BA1C1A004002770068DE2A5C1E6BFD95FBBB84D6094BEEEF080AB561FF05802A03F80724D2EA12E9467CDF00
310
00000049454E44AE426082
  0
ACDSRECORD
 90
        0
  2
AcDbDs::ID
280
    10
320
1E
  2
Thumbnail_Data
280
    15
 94
     1014
310
89504E470D0A1A0A0000000D49484452000000B80000007F08030000006B00F8F900000300504C5445FFFFFF000000FFFFFF0000000000000000000000000000000000000000000000000000330000660000990000CC0000FF0033000033330033660033990033CC0033FF0066000066330066660066990066CC0066FF0099
310
000099330099660099990099CC0099FF00CC0000CC3300CC6600CC9900CCCC00CCFF00FF0000FF3300FF6600FF9900FFCC00FFFF3300003300333300663300993300CC3300FF3333003333333333663333993333CC3333FF3366003366333366663366993366CC3366FF3399003399333399663399993399CC3399FF33CC00
310
33CC3333CC6633CC9933CCCC33CCFF33FF0033FF3333FF6633FF9933FFCC33FFFF6600006600336600666600996600CC6600FF6633006633336633666633996633CC6633FF6666006666336666666666996666CC6666FF6699006699336699666699996699CC6699FF66CC0066CC3366CC6666CC9966CCCC66CCFF66FF0066
310
FF3366FF6666FF9966FFCC66FFFF9900009900339900669900999900CC9900FF9933009933339933669933999933CC9933FF9966009966339966669966999966CC9966FF9999009999339999669999999999CC9999FF99CC0099CC3399CC6699CC9999CCCC99CCFF99FF0099FF3399FF6699FF9999FFCC99FFFFCC0000CC00
310
33CC0066CC0099CC00CCCC00FFCC3300CC3333CC3366CC3399CC33CCCC33FFCC6600CC6633CC6666CC6699CC66CCCC66FFCC9900CC9933CC9966CC9999CC99CCCC99FFCCCC00CCCC33CCCC66CCCC99CCCCCCCCCCFFCCFF00CCFF33CCFF66CCFF99CCFFCCCCFFFFFF0000FF0033FF0066FF0099FF00CCFF00FFFF3300FF3333
310
FF3366FF3399FF33CCFF33FFFF6600FF6633FF6666FF6699FF66CCFF66FFFF9900FF9933FF9966FF9999FF99CCFF99FFFFCC00FFCC33FFCC66FFCC99FFCCCCFFCCFFFFFF00FFFF33FFFF66FFFF99FFFFCCFFFFFF0000000D0D0D1A1A1A2828283535354343435050505D5D5D6B6B6B787878868686939393A1A1A1AEAEAEBB
310
BBBBC9C9C9D6D6D6E4E4E4F1F1F1FFFFFF000000000000000000000000000000000000000000000000000000000000790CAC0F000000B14944415478DAEDDC3B0A80301004D0DCFF987B81ADEC258D4D8A547E46DE968AF01061B25338BAE2A6C79CAE236C72E105FE3EFCFAFED72BBB1B373FB2837FF62D838383833F0A97
310
9CE0E0E0E0E1E771C9090E0E0E0E0E0E0E0EAE9EB04880838383AB27443E3838383838383838B87A021C1C1C1C5CAF22F2C1C1C1C1C1C1C1C1C1F52A362070707070F5043838383838383838B87AC222010E0E0EAE9E909CE0E0E099F0D47F7A4A4EF05FC2F366BA4F0386279D40CB09810000000049454E44AE426082
  0
ENDSEC
  0
EOF
